<?xml version="1.0" standalone="no"?>
<!DOCTYPE svg PUBLIC "-//W3C//DTD SVG 1.1//EN" "http://www.w3.org/Graphics/SVG/1.1/DTD/svg11.dtd" >
<svg>
<metadata>
Created by FontForge 20090914 at Fri Feb 24 06:42:31 2012
 By root
Copyright (c) 2009 by Jos Buivenga. All rights reserved.
</metadata>
<defs>
<font id="FontinSansCR-Bold" horiz-adv-x="510" >
  <font-face 
    font-family="Fontin Sans CR"
    font-weight="700"
    font-stretch="normal"
    units-per-em="1000"
    panose-1="2 0 0 0 0 0 0 0 0 0"
    ascent="756"
    descent="-244"
    x-height="505"
    cap-height="668"
    bbox="-59 -254 1176 879"
    underline-thickness="50"
    underline-position="-50"
    unicode-range="U+0020-U+FB04"
  />
<missing-glyph horiz-adv-x="500" 
 />
    <glyph glyph-name="fi" unicode="fi" horiz-adv-x="622" 
d="M542 520v-434l11 -86h-135v377l-4 35h-204v-298l11 -114h-135v412h-61v93h61v50c0 145 137 209 223 209c135 0 197 -64 197 -64l-36 -104c-26 27 -91 65 -150 65s-110 -32 -110 -108v-48h194z" />
    <glyph glyph-name="fl" unicode="fl" horiz-adv-x="622" 
d="M210 505h126l-33 -93h-93v-298l11 -114h-135v412h-61v93h61v50c0 145 137 209 223 209c60 0 127 -31 233 -49v-629l11 -86h-135v633c-29 15 -65 28 -98 28c-59 0 -110 -32 -110 -108v-48z" />
    <glyph glyph-name="ffi" unicode="ffi" horiz-adv-x="960" 
d="M880 520v-434l11 -86h-135v377l-4 35h-204v-298l11 -114h-135v412h-214v-298l11 -114h-135v412h-61v93h61v50c0 145 137 209 223 209c104 0 165 -38 187 -56c46 38 106 56 151 56c135 0 197 -64 197 -64l-36 -104c-26 27 -91 65 -150 65s-110 -32 -110 -108v-48h194z
M424 505v50c0 25 4 48 11 68c-31 20 -75 38 -115 38c-59 0 -110 -32 -110 -108v-48h214z" />
    <glyph glyph-name="ffl" unicode="ffl" horiz-adv-x="960" 
d="M548 505h126l-33 -93h-93v-298l11 -114h-135v412h-214v-298l11 -114h-135v412h-61v93h61v50c0 145 137 209 223 209c104 0 165 -38 187 -56c46 38 106 56 151 56c60 0 127 -31 233 -49v-629l11 -86h-135v633c-29 15 -65 28 -98 28c-59 0 -110 -32 -110 -108v-48zM210 553
v-48h214v50c0 25 4 48 11 68c-31 20 -75 38 -115 38c-59 0 -110 -32 -110 -108z" />
    <glyph glyph-name="fj" unicode="fj" horiz-adv-x="618" 
d="M542 520v-503c0 -155 -86 -260 -201 -261l-43 103c93 0 120 71 120 169v359l-4 25h-204v-298l11 -114h-135v412h-61v93h61v50c0 145 137 209 223 209c135 0 197 -64 197 -64l-36 -104c-26 27 -91 65 -150 65s-110 -32 -110 -108v-48h194z" />
    <glyph glyph-name="ff" unicode="ff" horiz-adv-x="676" 
d="M309 764c82 0 137 -24 167 -42c30 29 70 42 113 42c44 0 89 -13 132 -38l-42 -101c-36 29 -64 32 -80 32c-29 0 -51 -20 -51 -74v-78h126l-33 -93h-93v-298l11 -114h-135v412h-214v-298l11 -114h-135v412h-61v93h61v50c0 145 137 209 223 209zM210 553v-48h214v60
c0 23 2 43 5 62c-31 18 -71 34 -109 34c-59 0 -110 -32 -110 -108z" />
    <glyph glyph-name=".notdef" horiz-adv-x="500" 
 />
    <glyph glyph-name="B" unicode="B" horiz-adv-x="576" 
d="M227 575v-170c78 0 101 -5 114 -6c16 23 32 61 32 97c0 60 -32 81 -105 81c-12 0 -26 -1 -41 -2zM83 668l179 5c139 0 232 -49 232 -157c0 -55 -46 -110 -79 -140c78 -36 120 -94 120 -166c0 -121 -74 -210 -247 -210h-191v565zM227 309v-212h62c73 0 114 41 114 109
c0 60 -38 103 -139 103h-37z" />
    <glyph glyph-name="C" unicode="C" horiz-adv-x="619" 
d="M595 597l-53 -96c-56 57 -116 80 -175 80c-113 0 -198 -117 -198 -251c0 -156 100 -241 208 -241c68 0 144 32 202 94l24 -103c-63 -58 -160 -93 -245 -93c-165 0 -324 112 -324 333c0 211 145 360 332 360c90 0 165 -26 229 -83z" />
    <glyph glyph-name="D" unicode="D" horiz-adv-x="683" 
d="M83 668h270c149 0 295 -100 295 -330c0 -193 -127 -338 -325 -338h-226v565zM227 571v-474h108c102 0 176 101 176 235c0 136 -74 239 -176 239h-108z" />
    <glyph glyph-name="E" unicode="E" 
d="M97 0v565l-14 103h383v-99h-239v-177h211l-25 -99h-186v-194h252l-25 -99h-357z" />
    <glyph glyph-name="F" unicode="F" horiz-adv-x="485" 
d="M97 565l-14 103h383v-99h-239v-177h211l-25 -99h-186v-207l11 -86h-141v565z" />
    <glyph glyph-name="G" unicode="G" horiz-adv-x="656" 
d="M595 597l-53 -96c-56 57 -116 80 -175 80c-113 0 -198 -117 -198 -251c0 -156 103 -245 207 -245c53 0 103 13 103 13v141l-18 86h144l1 -294s-117 -44 -248 -44c-165 0 -324 112 -324 333c0 211 145 360 332 360c90 0 165 -26 229 -83z" />
    <glyph glyph-name="H" unicode="H" horiz-adv-x="765" 
d="M669 668v-582l11 -86h-141v282h-312v-196l11 -86h-141v565l-14 103h144v-277h312v174l-14 103h144z" />
    <glyph glyph-name="I" unicode="I" horiz-adv-x="329" 
d="M228 668v-582l11 -86h-141v565l-14 103h144z" />
    <glyph glyph-name="J" unicode="J" horiz-adv-x="324" 
d="M231 668v-620c0 -128 -65 -247 -216 -247c-19 0 -44 3 -74 9l7 112s27 -15 67 -15c53 0 86 62 86 141v517l-14 103h144z" />
    <glyph glyph-name="K" unicode="K" horiz-adv-x="591" 
d="M227 86l11 -86h-141v565l-14 103h144v-307l161 236l32 71h167l-233 -316l249 -352h-160l-216 326v-240z" />
    <glyph glyph-name="L" unicode="L" horiz-adv-x="481" 
d="M97 0v565l-14 103h144v-567h255l-25 -101h-360z" />
    <glyph glyph-name="M" unicode="M" horiz-adv-x="894" 
d="M445 62l-209 287l-33 65v-328l11 -86h-126v565l-14 103h103l279 -397l255 397h87v-582l11 -86h-141v413l-29 -64z" />
    <glyph glyph-name="N" unicode="N" horiz-adv-x="742" 
d="M655 668v-582l7 -86h-83l-337 379l-39 63v-356l11 -86h-126v565l-14 103h100l328 -386l38 -62v345l-14 103h129z" />
    <glyph glyph-name="O" unicode="O" horiz-adv-x="690" 
d="M351 678c206 0 309 -141 309 -339c0 -200 -140 -352 -322 -352c-196 0 -307 149 -307 340c0 199 138 351 320 351zM169 333c0 -143 71 -249 177 -249s176 106 176 249s-70 249 -176 249s-177 -106 -177 -249z" />
    <glyph glyph-name="P" unicode="P" horiz-adv-x="556" 
d="M83 668h207c120 0 236 -66 236 -208c0 -119 -114 -224 -270 -224h-29v-150l11 -86h-141v565zM227 336h45c63 0 119 53 119 124c0 76 -56 111 -119 111h-45v-235z" />
    <glyph glyph-name="Q" unicode="Q" horiz-adv-x="690" 
d="M297 -64v54c-171 19 -266 159 -266 336c0 199 138 350 320 350c206 0 309 -140 309 -338c0 -175 -108 -313 -256 -344l212 -81l-47 -102zM169 332c0 -143 71 -253 177 -253s176 110 176 253s-70 253 -176 253s-177 -110 -177 -253z" />
    <glyph glyph-name="R" unicode="R" horiz-adv-x="605" 
d="M607 0h-163l-166 236h-51v-150l11 -86h-141v565l-14 103h207c120 0 236 -66 236 -208c0 -74 -51 -157 -126 -195zM227 331h45c63 0 119 58 119 129c0 76 -56 116 -119 116h-45v-245z" />
    <glyph glyph-name="S" unicode="S" horiz-adv-x="490" 
d="M44 55l10 112s82 -83 187 -83c55 0 94 38 94 83c0 114 -284 120 -284 316c0 108 78 197 203 197c86 0 151 -28 186 -50l-25 -100s-66 55 -164 55c-37 0 -81 -30 -81 -76c0 -116 287 -115 287 -320c0 -114 -81 -202 -209 -202c-130 0 -204 68 -204 68z" />
    <glyph glyph-name="T" unicode="T" horiz-adv-x="556" 
d="M0 567v101h556v-101h-216v-481l11 -86h-141v567h-210z" />
    <glyph glyph-name="U" unicode="U" horiz-adv-x="716" 
d="M529 257v308l-14 103h129v-400c0 -168 -112 -281 -288 -281c-256 0 -262 238 -262 255v323l-14 103h144v-418c0 -100 64 -165 150 -165c87 0 155 72 155 172z" />
    <glyph glyph-name="V" unicode="V" horiz-adv-x="622" 
d="M622 668l-267 -681l-91 20l-199 537l-65 124h160l146 -419l15 -79l21 79l155 419h125z" />
    <glyph glyph-name="W" unicode="W" horiz-adv-x="962" 
d="M962 668l-267 -681l-91 20l-117 311l-132 -331l-91 20l-199 537l-65 124h160l147 -419l14 -79l21 79l88 222l-73 197h143l147 -419l14 -79l21 79l155 419h125z" />
    <glyph glyph-name="X" unicode="X" horiz-adv-x="536" 
d="M0 0l204 334l-137 247l-64 87h159l102 -188l15 -35l13 35l108 188h132l-194 -318l198 -350h-146l-109 203l-16 35l-14 -35l-113 -203h-138z" />
    <glyph glyph-name="Y" unicode="Y" horiz-adv-x="550" 
d="M345 299v-213l11 -86h-141v289l-153 294l-62 85h159l118 -228l13 -39l13 39l117 228h130z" />
    <glyph glyph-name="Z" unicode="Z" horiz-adv-x="576" 
d="M24 0l-5 35l305 479l41 52h-331l27 102h482l5 -35l-303 -479l-41 -53h355v-101h-535z" />
    <glyph glyph-name="bracketleft" unicode="[" horiz-adv-x="258" 
d="M216 734v-87h-86v-628h86v-88h-201v803h201z" />
    <glyph glyph-name="backslash" unicode="\" horiz-adv-x="366" 
d="M262 -244l-265 901h116l257 -901h-108z" />
    <glyph glyph-name="bracketright" unicode="]" horiz-adv-x="258" 
d="M36 647v87h201v-803h-201v88h86v628h-86z" />
    <glyph glyph-name="asciicircum" unicode="^" horiz-adv-x="634" 
d="M582 320h-113l-154 281l-155 -281h-110l223 388h86z" />
    <glyph glyph-name="underscore" unicode="_" horiz-adv-x="493" 
d="M514 -65l-33 -80h-481v80h514z" />
    <glyph glyph-name="grave" unicode="`" horiz-adv-x="348" 
d="M23 724h149l115 -136l-79 -28z" />
    <glyph glyph-name="a" unicode="a" horiz-adv-x="523" 
d="M111 356l-51 88s74 76 209 76c83 0 171 -34 171 -138v-259c0 -60 51 -120 51 -120l-126 -14s-25 28 -34 62c-39 -39 -96 -64 -151 -64c-87 0 -146 64 -146 131c0 105 104 188 282 194v19c0 70 -26 100 -68 100c-79 0 -137 -75 -137 -75zM221 79c31 0 73 21 95 43v102
c-49 -4 -154 -15 -154 -90c0 -28 19 -55 59 -55z" />
    <glyph glyph-name="b" unicode="b" horiz-adv-x="559" 
d="M65 745l138 15v-277s48 37 110 37c106 0 212 -85 212 -256c0 -149 -108 -277 -264 -277c-84 0 -160 41 -182 87v570zM203 400v-295c18 -17 45 -28 74 -28c63 0 115 78 115 178s-52 169 -115 169c-41 0 -74 -24 -74 -24z" />
    <glyph glyph-name="c" unicode="c" horiz-adv-x="489" 
d="M467 453l-57 -90c-37 46 -86 62 -123 62c-86 0 -124 -82 -124 -172c0 -84 38 -164 120 -164c87 0 164 80 164 80l18 -104s-75 -78 -206 -78c-149 0 -223 128 -223 257c0 146 87 276 248 276c123 0 183 -67 183 -67z" />
    <glyph glyph-name="d" unicode="d" horiz-adv-x="562" 
d="M480 767v-643c0 -60 51 -120 51 -120l-126 -14s-22 21 -34 59c-31 -34 -92 -61 -137 -61c-107 0 -200 89 -200 255c0 149 108 277 264 277c17 0 58 -5 58 -5v136l-14 101zM266 81c26 0 59 20 90 47v297s-35 6 -74 6c-63 0 -115 -79 -115 -179c0 -109 45 -171 99 -171z
" />
    <glyph glyph-name="e" unicode="e" horiz-adv-x="499" 
d="M274 520c175 0 188 -187 190 -262l-24 -24h-277c5 -81 46 -145 125 -145c87 0 168 71 168 71l18 -102s-80 -71 -210 -71c-149 0 -228 124 -228 253c0 146 71 280 238 280zM262 435c-55 0 -83 -50 -94 -113h167c-3 48 -20 113 -73 113z" />
    <glyph glyph-name="f" unicode="f" horiz-adv-x="338" 
d="M25 412v93h61v60c0 145 77 199 165 199c44 0 89 -13 132 -38l-42 -101c-36 29 -64 32 -80 32c-29 0 -51 -20 -51 -74v-78h126l-33 -93h-93v-298l11 -114h-135v412h-61z" />
    <glyph glyph-name="g" unicode="g" horiz-adv-x="516" 
d="M243 121c-41 0 -62 10 -62 10c-13 -13 -21 -27 -21 -39c0 -75 338 44 338 -161c0 -118 -132 -174 -257 -174c-183 0 -219 107 -219 107l72 66s32 -84 158 -84c58 0 129 15 129 64c0 97 -325 -21 -325 142c0 40 31 79 62 110c-44 29 -82 90 -82 153c0 117 91 205 218 205
c41 0 89 -20 98 -28l18 13h146l-21 -77h-70c24 -30 34 -66 34 -105c0 -119 -94 -202 -216 -202zM163 320c0 -67 41 -112 86 -112s83 45 83 112c0 68 -38 113 -83 113s-86 -45 -86 -113z" />
    <glyph glyph-name="h" unicode="h" horiz-adv-x="590" 
d="M526 0h-135v292c0 94 -10 124 -61 124c-76 0 -125 -55 -125 -55v-275l11 -86h-135v644l-14 101l138 15v-300c44 40 104 60 159 60c76 0 151 -41 151 -128v-308z" />
    <glyph glyph-name="i" unicode="i" horiz-adv-x="284" 
d="M203 520v-434l11 -86h-135v404l-14 101zM69 653c0 39 32 70 70 70c36 0 67 -31 67 -70c0 -37 -31 -67 -67 -67c-38 0 -70 30 -70 67z" />
    <glyph glyph-name="j" unicode="j" horiz-adv-x="278" 
d="M204 520v-503c0 -155 -86 -260 -201 -261l-43 103c93 0 120 71 120 169v376l-14 101zM69 653c0 39 32 70 70 70c36 0 67 -31 67 -70c0 -37 -31 -67 -67 -67c-38 0 -70 30 -70 67z" />
    <glyph glyph-name="k" unicode="k" horiz-adv-x="543" 
d="M205 760v-483l137 174l24 54h167l-203 -229l213 -276h-155l-183 253v-167l11 -86h-135v644l-14 101z" />
    <glyph glyph-name="l" unicode="l" horiz-adv-x="286" 
d="M205 760v-674l11 -86h-135v644l-14 101z" />
    <glyph glyph-name="m" unicode="m" horiz-adv-x="902" 
d="M835 0h-135v292c0 94 -10 124 -61 124c-74 0 -124 -57 -124 -57v-275l11 -84h-135v292c0 94 -10 124 -61 124c-76 0 -125 -58 -125 -58v-272l11 -86h-135v403l-14 101l138 15v-62c44 40 104 63 159 63s110 -25 136 -70c2 3 61 70 173 70c76 0 151 -41 151 -128v-308z" />
    <glyph glyph-name="n" unicode="n" horiz-adv-x="593" 
d="M526 0h-135v292c0 94 -10 124 -61 124c-76 0 -125 -57 -125 -57v-273l11 -86h-135v403l-14 101l138 15v-61c44 40 104 62 159 62c76 0 151 -41 151 -128v-308z" />
    <glyph glyph-name="o" unicode="o" horiz-adv-x="563" 
d="M529 264c0 -149 -97 -277 -264 -277c-152 0 -231 133 -231 259c0 149 95 274 265 274c131 0 230 -79 230 -256zM166 254c0 -100 43 -178 115 -178s115 78 115 178s-43 177 -115 177s-115 -77 -115 -177z" />
    <glyph glyph-name="p" unicode="p" horiz-adv-x="564" 
d="M81 -240v644l-14 101l138 15v-56c40 37 82 56 122 56c107 0 200 -90 200 -256c0 -149 -108 -277 -264 -277c-17 0 -38 2 -58 4v-145l11 -86h-135zM295 417c-56 0 -90 -42 -90 -42v-294s35 -4 74 -4c63 0 115 78 115 178c0 109 -45 162 -99 162z" />
    <glyph glyph-name="q" unicode="q" horiz-adv-x="552" 
d="M489 -245h-133v259c-28 -15 -62 -27 -102 -27c-110 0 -220 80 -220 257c0 149 108 276 264 276c61 0 182 -20 182 -20v-643zM356 101v323c-18 3 -50 6 -74 6c-63 0 -115 -77 -115 -177s52 -178 115 -178c22 0 49 5 74 26z" />
    <glyph glyph-name="r" unicode="r" horiz-adv-x="424" 
d="M424 483l-38 -110s-29 27 -67 27c-52 0 -114 -64 -114 -142v-172l11 -86h-135v402l-14 101l138 15v-91s49 93 136 93c31 0 59 -12 83 -37z" />
    <glyph glyph-name="s" unicode="s" horiz-adv-x="427" 
d="M34 46l12 105s81 -70 159 -70c36 0 73 16 73 50c0 78 -243 80 -243 227c0 123 97 161 199 161c88 0 143 -33 143 -33l-23 -100s-50 45 -141 45c-34 0 -64 -20 -64 -47c0 -81 244 -72 244 -240c0 -102 -75 -157 -189 -157s-170 59 -170 59z" />
    <glyph glyph-name="t" unicode="t" horiz-adv-x="379" 
d="M220 609l-10 -104h149l-32 -93h-118v-266c0 -36 18 -46 42 -46c37 0 92 27 115 47l13 -109s-56 -51 -165 -51c-85 0 -128 45 -128 162v263h-61v93h61v89z" />
    <glyph glyph-name="u" unicode="u" horiz-adv-x="592" 
d="M561 5l-130 -18s-25 32 -32 68c0 0 -66 -68 -172 -68c-76 0 -151 41 -151 128v288l-14 101l138 15v-304c0 -88 8 -125 58 -125c81 0 128 62 128 62v251l-14 101l138 15v-394c0 -60 51 -120 51 -120z" />
    <glyph glyph-name="v" unicode="v" horiz-adv-x="513" 
d="M513 519l-218 -532l-108 19l-138 402l-49 93l140 18l102 -322l11 -67l16 67l111 303z" />
    <glyph glyph-name="w" unicode="w" horiz-adv-x="843" 
d="M843 519l-218 -532l-102 19l-91 265l-13 50l-11 -51l-119 -283l-102 19l-138 402l-49 93l137 18l102 -323l11 -66l18 66l98 257l-20 48l127 18l102 -323l11 -66l17 66l110 304z" />
    <glyph glyph-name="x" unicode="x" horiz-adv-x="514" 
d="M0 0l187 252l-107 164l-73 85l144 18l94 -155l12 -27l14 27l96 137l147 18l-197 -257l173 -262h-142l-89 148l-14 26l-13 -27l-100 -147h-132z" />
    <glyph glyph-name="y" unicode="y" horiz-adv-x="513" 
d="M513 519l-247 -607c-44 -108 -117 -155 -198 -155c-20 0 -44 3 -72 14l-17 120s41 -17 74 -17c57 0 100 30 135 129l-139 403l-49 93l138 18l104 -320l11 -67l17 67l112 303z" />
    <glyph glyph-name="z" unicode="z" horiz-adv-x="455" 
d="M14 0l-4 29l221 343l32 40h-247l26 93h389l4 -29l-221 -344l-31 -39h257v-93h-426z" />
    <glyph glyph-name="braceleft" unicode="{" horiz-adv-x="311" 
d="M12 263v72c63 0 68 57 68 70v191c0 109 89 159 201 159v-82c-33 0 -81 -9 -81 -80v-187c0 -71 -56 -107 -56 -107s56 -36 56 -107v-272c0 -71 48 -80 81 -80v-82c-112 0 -201 50 -201 159v276c0 13 -5 70 -68 70z" />
    <glyph glyph-name="bar" unicode="|" horiz-adv-x="237" 
d="M174 756v-1010h-111v1010h111z" />
    <glyph glyph-name="braceright" unicode="}" horiz-adv-x="311" 
d="M299 335v-72c-63 0 -68 -57 -68 -70v-276c0 -109 -89 -159 -201 -159v82c33 0 81 9 81 80v272c0 71 56 107 56 107s-56 36 -56 107v187c0 71 -48 80 -81 80v82c112 0 201 -50 201 -159v-191c0 -13 5 -70 68 -70z" />
    <glyph glyph-name="A" unicode="A" horiz-adv-x="592" 
d="M-10 0l257 660l85 21l204 -557l56 -124h-145l-57 155h-221l-59 -155h-120zM273 451l-72 -193h160l-69 194l-9 39z" />
    <glyph glyph-name="space" unicode=" " horiz-adv-x="250" 
 />
    <glyph glyph-name="onehalf" unicode="&#xbd;" horiz-adv-x="788" 
d="M749 -59h-266l-8 47c25 26 147 139 147 212c0 32 -16 43 -36 43c-23 0 -52 -15 -71 -30l-41 72c34 31 82 48 130 48c67 0 132 -37 132 -119c0 -70 -78 -150 -119 -190h140zM617 559l-325 -470h-102l345 501zM42 286v71h75v204l-55 -17l-27 68l191 61v-316h76l-10 -71
h-250z" />
    <glyph glyph-name="onequarter" unicode="&#xbc;" horiz-adv-x="748" 
d="M617 559l-325 -470h-102l345 501zM42 286v71h75v204l-55 -17l-27 68l191 61v-316h76l-10 -71h-250zM391 79l185 266l89 -26v-210h70l-19 -79h-51v-26l8 -63h-115v89h-157zM559 109l-2 87l3 37l-18 -37l-48 -71l-20 -18l21 2h64z" />
    <glyph glyph-name="onesuperior" unicode="&#xb9;" horiz-adv-x="312" 
d="M42 286v71h75v204l-55 -17l-27 68l191 61v-316h76l-10 -71h-250z" />
    <glyph glyph-name="threequarters" unicode="&#xbe;" horiz-adv-x="732" 
d="M375 79l185 266l89 -26v-210h70l-19 -79h-51v-26l8 -63h-115v89h-157zM543 109l-2 87l3 37l-18 -37l-48 -71l-20 -18l21 2h64zM601 559l-325 -470h-102l345 501zM303 581c0 -31 -29 -62 -60 -79c42 -7 75 -51 75 -95c0 -97 -112 -126 -201 -126c-22 0 -43 2 -60 5l-22 70
c17 -2 35 -4 53 -4c61 0 120 16 120 67c0 32 -54 40 -95 40l7 46c35 15 71 31 71 68c0 26 -20 34 -39 34c-40 0 -76 -28 -76 -28l-28 61s48 37 123 37c67 0 132 -33 132 -96z" />
    <glyph glyph-name="threesuperior" unicode="&#xb3;" horiz-adv-x="357" 
d="M303 581c0 -31 -29 -62 -60 -79c42 -7 75 -51 75 -95c0 -97 -112 -126 -201 -126c-22 0 -43 2 -60 5l-22 70c17 -2 35 -4 53 -4c61 0 120 16 120 67c0 32 -54 40 -95 40l7 46c35 15 71 31 71 68c0 26 -20 34 -39 34c-40 0 -76 -28 -76 -28l-28 61s48 37 123 37
c67 0 132 -33 132 -96z" />
    <glyph glyph-name="twosuperior" unicode="&#xb2;" horiz-adv-x="355" 
d="M316 286h-266l-8 47c25 26 147 139 147 212c0 32 -16 43 -36 43c-23 0 -52 -15 -71 -30l-41 72c34 31 82 48 130 48c67 0 132 -37 132 -119c0 -70 -78 -150 -119 -190h140z" />
    <glyph glyph-name="Eth" unicode="&#xd0;" horiz-adv-x="683" 
d="M24 392h73v173l-14 103h270c149 0 295 -100 295 -330c0 -193 -127 -338 -325 -338h-226v288h-73v104zM227 575v-183h128l-28 -104h-100v-191h108c102 0 176 101 176 235c0 136 -74 243 -176 243h-108z" />
    <glyph glyph-name="eth" unicode="&#xf0;" horiz-adv-x="558" 
d="M340 689l125 54v-75l-67 -29c84 -89 130 -216 130 -342c0 -168 -78 -310 -263 -310c-226 0 -231 239 -231 256c0 151 107 272 236 272c48 0 95 -25 95 -25c-20 42 -44 76 -72 104l-145 -63l-27 62l109 48c-28 15 -58 25 -90 31l35 83c62 -9 118 -33 165 -66zM166 252
c0 -100 43 -176 115 -176c63 0 113 57 113 236c0 26 -1 53 -7 79c-29 22 -76 37 -106 37c-72 0 -115 -76 -115 -176z" />
    <glyph glyph-name="Lslash" unicode="&#x141;" horiz-adv-x="481" 
d="M97 0v222l-50 -29l-42 82l92 52v238l-14 103h144v-267l127 73l14 -94l-141 -82v-199h255l-25 -99h-360z" />
    <glyph glyph-name="lslash" unicode="&#x142;" horiz-adv-x="284" 
d="M204 760v-366l56 32l14 -94l-70 -41v-205l11 -86h-135v219l-45 -26l-38 83l83 47v321l-14 101z" />
    <glyph glyph-name="Scaron" unicode="&#x160;" horiz-adv-x="490" 
d="M44 55l10 112s82 -83 187 -83c55 0 94 38 94 83c0 114 -284 120 -284 316c0 108 78 197 203 197c86 0 151 -28 186 -50l-25 -100s-66 55 -164 55c-37 0 -81 -30 -81 -76c0 -116 287 -115 287 -320c0 -114 -81 -202 -209 -202c-130 0 -204 68 -204 68zM301 712h-102
l-114 133l78 30l88 -93l86 93l78 -30z" />
    <glyph glyph-name="scaron" unicode="&#x161;" horiz-adv-x="427" 
d="M34 46l12 105s81 -70 159 -70c36 0 73 16 73 50c0 78 -243 80 -243 227c0 123 97 161 199 161c88 0 143 -33 143 -33l-23 -100s-50 45 -141 45c-34 0 -64 -20 -64 -47c0 -81 244 -72 244 -240c0 -102 -75 -157 -189 -157s-170 59 -170 59zM266 561h-102l-114 133l78 30
l88 -93l86 93l78 -30z" />
    <glyph glyph-name="Yacute" unicode="&#xdd;" horiz-adv-x="550" 
d="M345 299v-213l11 -86h-141v289l-153 294l-62 85h159l118 -228l13 -39l13 39l117 228h130zM323 865h149l-185 -164l-79 28z" />
    <glyph glyph-name="Thorn" unicode="&#xde;" horiz-adv-x="556" 
d="M83 746l142 10v-149h65c120 0 236 -66 236 -208c0 -119 -114 -224 -270 -224h-29v-89l11 -86h-141v643zM227 266h45c63 0 119 62 119 133c0 76 -56 120 -119 120h-45v-253z" />
    <glyph glyph-name="thorn" unicode="&#xfe;" horiz-adv-x="563" 
d="M80 -240v880l-14 101l138 15v-289c40 37 82 53 122 53c107 0 200 -90 200 -256c0 -149 -108 -277 -264 -277c-17 0 -38 2 -58 4v-145l11 -86h-135zM294 427c-27 0 -59 -14 -90 -52v-294s35 -4 74 -4c63 0 115 78 115 178c0 109 -45 172 -99 172z" />
    <glyph glyph-name="Zcaron" unicode="&#x17d;" horiz-adv-x="576" 
d="M24 0l-5 35l305 479l41 52h-331l27 102h482l5 -35l-303 -479l-41 -53h355v-101h-535zM342 712h-102l-114 133l78 30l88 -93l86 93l78 -30z" />
    <glyph glyph-name="zcaron" unicode="&#x17e;" horiz-adv-x="455" 
d="M14 0l-4 29l221 343l32 40h-247l26 93h389l4 -29l-221 -344l-31 -39h257v-93h-426zM286 561h-102l-114 133l78 30l88 -93l86 93l78 -30z" />
    <glyph glyph-name="multiply" unicode="&#xd7;" horiz-adv-x="439" 
d="M337 62l-118 117l-115 -115l-71 72l115 116l-124 122l90 51l102 -104l125 126l53 -94l-104 -103l117 -118z" />
    <glyph glyph-name="exclam" unicode="!" horiz-adv-x="274" 
d="M214 766l-28 -549l-92 -15l-21 451l-14 93zM217 61c0 -41 -31 -74 -75 -74s-75 33 -75 74c0 38 31 75 75 75s75 -37 75 -75z" />
    <glyph glyph-name="quotedbl" unicode="&#x22;" horiz-adv-x="411" 
d="M169 427h-97l3 126l-18 100l112 19v-245zM339 427h-97l3 126l-18 100l112 19v-245z" />
    <glyph glyph-name="numbersign" unicode="#" horiz-adv-x="714" 
d="M646 169h-141l-19 -169h-118l20 169h-121l-19 -169h-118l20 169h-136v94h145l18 156h-135v94h144l16 145h117l-17 -145h121l16 145h118l-17 -145h144l-11 -94h-141l-18 -156h143zM397 263l18 156h-121l-18 -156h121z" />
    <glyph glyph-name="dollar" unicode="$" horiz-adv-x="490" 
d="M281 756v-77c72 -6 128 -35 159 -54l-25 -111s-60 51 -134 63v-177c81 -51 179 -111 179 -221c0 -106 -69 -179 -179 -190v-83h-61v82c-113 9 -176 67 -176 67l10 117s71 -77 166 -87v184c-78 50 -167 111 -167 216c0 98 62 178 167 192v79h61zM335 154
c0 27 -22 51 -54 74v-139c33 9 54 32 54 65zM172 514c0 -28 19 -51 48 -73v134c-26 -8 -48 -28 -48 -61z" />
    <glyph glyph-name="percent" unicode="%" horiz-adv-x="860" 
d="M387 507c0 -89 -78 -163 -166 -163c-86 0 -163 74 -163 163s77 163 163 163c88 0 166 -74 166 -163zM299 508c0 41 -38 75 -77 75c-41 0 -76 -34 -76 -75c0 -38 32 -80 76 -80c49 0 77 42 77 80zM707 647l-448 -647h-117l470 688zM802 150c0 -89 -78 -163 -166 -163
c-86 0 -163 74 -163 163s77 163 163 163c88 0 166 -74 166 -163zM714 151c0 41 -38 75 -77 75c-41 0 -76 -34 -76 -75c0 -38 32 -80 76 -80c49 0 77 42 77 80z" />
    <glyph glyph-name="ampersand" unicode="&#x26;" horiz-adv-x="769" 
d="M740 55l-89 -77c-46 19 -95 49 -151 91c-49 -52 -123 -82 -216 -82c-138 0 -229 86 -229 188c0 83 52 150 135 219c-52 76 -83 146 -83 195c0 101 91 176 208 176c111 0 179 -65 179 -140c0 -82 -78 -157 -171 -232c46 -58 103 -119 161 -172c0 0 35 71 35 186
c0 27 -1 58 -4 95h243l-20 -89h-117c0 -115 -30 -212 -58 -258c71 -55 135 -88 177 -100zM312 80c70 0 114 52 114 52c-65 57 -127 125 -181 191c-39 -39 -63 -82 -63 -135c0 -54 36 -108 130 -108zM220 602c0 -36 23 -85 56 -138c56 46 101 90 101 135c0 35 -23 81 -73 81
c-35 0 -84 -25 -84 -78z" />
    <glyph glyph-name="quotesingle" unicode="'" horiz-adv-x="241" 
d="M169 427h-97l3 126l-18 100l112 19v-245z" />
    <glyph glyph-name="parenleft" unicode="(" horiz-adv-x="340" 
d="M171 237c0 -265 142 -441 165 -452l-91 -33c-110 68 -194 301 -194 485c0 186 84 388 194 455l91 -33c-23 -11 -165 -157 -165 -422z" />
    <glyph glyph-name="parenright" unicode=")" horiz-adv-x="340" 
d="M169 237c0 265 -142 411 -165 422l91 33c109 -67 194 -269 194 -455c0 -184 -84 -418 -194 -485l-91 33c23 11 165 187 165 452z" />
    <glyph glyph-name="asterisk" unicode="*" horiz-adv-x="412" 
d="M-11 539l40 82l108 -3l-81 126l103 7l45 -87l61 112l67 -65l-61 -93l148 3l-40 -82l-108 3l81 -126l-103 -7l-45 86l-61 -110l-65 65l59 92z" />
    <glyph glyph-name="plus" unicode="+" horiz-adv-x="481" 
d="M186 60v144h-143v98h143v154l110 -30v-124h151l-25 -98h-126v-144h-110z" />
    <glyph glyph-name="comma" unicode="," horiz-adv-x="280" 
d="M91 -133l-40 49c37 33 59 68 59 97c0 28 -10 37 -29 46v7c0 29 27 68 67 68c37 0 71 -25 71 -77c0 -48 -36 -126 -128 -190z" />
    <glyph glyph-name="hyphen" unicode="-" horiz-adv-x="312" 
d="M16 299h291l-28 -104h-263v104z" />
    <glyph glyph-name="period" unicode="." horiz-adv-x="280" 
d="M215 61c0 -41 -31 -74 -75 -74s-75 33 -75 74c0 38 31 75 75 75s75 -37 75 -75z" />
    <glyph glyph-name="slash" unicode="/" horiz-adv-x="301" 
d="M286 657l-214 -901h-110l211 901h113z" />
    <glyph glyph-name="zero" unicode="0" 
d="M261 603c188 0 223 -164 223 -307c0 -171 -65 -309 -245 -309c-117 0 -212 83 -212 310c0 174 70 306 234 306zM255 507c-66 0 -99 -71 -99 -199c0 -133 22 -227 94 -227c64 0 107 78 107 211c0 131 -30 215 -102 215z" />
    <glyph glyph-name="one" unicode="1" horiz-adv-x="410" 
d="M34 0v96h123v365l-98 -30l-36 89l258 85v-509h123l-14 -96h-356z" />
    <glyph glyph-name="two" unicode="2" 
d="M458 0h-385l-13 56c86 92 247 258 247 361c0 57 -40 84 -76 84c-70 0 -122 -61 -122 -61l-52 91c49 41 119 67 188 67c97 0 189 -56 189 -168c0 -150 -202 -322 -202 -322h239z" />
    <glyph glyph-name="three" unicode="3" 
d="M436 451c0 -56 -42 -104 -99 -133c80 -19 123 -97 123 -167c0 -192 -193 -276 -376 -246l-30 94c96 -20 278 -2 278 139c0 85 -115 111 -155 111l14 82c57 19 117 60 117 107c0 46 -41 65 -73 65c-60 0 -125 -52 -122 -55l-41 87c43 35 107 63 175 63
c99 0 189 -50 189 -147z" />
    <glyph glyph-name="four" unicode="4" 
d="M14 166l284 434l106 -18v-379h96l-20 -108h-76v-103l12 -92h-136v195h-253zM282 203v156l8 77l-36 -74l-79 -129l-22 -30h129z" />
    <glyph glyph-name="five" unicode="5" 
d="M442 585l-20 -108h-210l-5 -102c130 -1 246 -88 246 -219c0 -181 -163 -257 -313 -257c-22 0 -43 1 -63 4l-30 93c22 -4 48 -7 74 -7c96 0 205 45 205 157c0 78 -93 141 -183 141c-17 0 -34 -1 -50 -3l14 301h335z" />
    <glyph glyph-name="six" unicode="6" 
d="M477 618l-42 -98c-30 33 -79 59 -127 59c-61 0 -133 -56 -143 -176c41 24 86 33 128 33c102 0 193 -57 193 -198c0 -137 -79 -251 -228 -251c-152 0 -224 130 -224 311c0 289 130 380 280 380c102 0 163 -60 163 -60zM251 335c-27 0 -58 -8 -90 -31
c2 -109 23 -216 114 -216c56 0 85 61 85 122c0 93 -50 125 -109 125z" />
    <glyph glyph-name="seven" unicode="7" 
d="M209 -114l-112 16l252 575h-286l-32 108h451l19 -26z" />
    <glyph glyph-name="eight" unicode="8" 
d="M241 -13c-88 0 -203 41 -203 168c0 88 63 142 129 193c-57 47 -105 98 -105 157c0 107 75 173 205 173c104 0 185 -55 185 -139c0 -83 -51 -129 -109 -174c70 -54 136 -111 136 -178c0 -122 -103 -200 -238 -200zM241 297c-42 -30 -81 -71 -81 -126c0 -40 31 -82 90 -82
c51 0 103 30 103 76c0 43 -54 86 -112 132zM271 417c34 25 61 56 61 101c0 32 -23 70 -76 70c-43 0 -74 -20 -74 -63c0 -36 38 -70 89 -108z" />
    <glyph glyph-name="nine" unicode="9" 
d="M36 -53l42 98c30 -33 79 -59 127 -59c61 0 133 67 143 197c-41 -24 -86 -33 -128 -33c-102 0 -193 57 -193 198c0 137 79 250 228 250c152 0 224 -139 224 -320c0 -289 -130 -391 -280 -391c-102 0 -163 60 -163 60zM262 251c27 0 58 8 90 31c-2 109 -23 215 -114 215
c-56 0 -85 -60 -85 -121c0 -93 50 -125 109 -125z" />
    <glyph glyph-name="colon" unicode=":" horiz-adv-x="268" 
d="M68 323c0 39 32 70 70 70c36 0 67 -31 67 -70c0 -37 -31 -67 -67 -67c-38 0 -70 30 -70 67zM68 54c0 39 32 70 70 70c36 0 67 -31 67 -70c0 -37 -31 -67 -67 -67c-38 0 -70 30 -70 67z" />
    <glyph glyph-name="semicolon" unicode=";" horiz-adv-x="268" 
d="M76 -133l-40 49c37 33 59 68 59 97c0 28 -9 37 -28 46c-1 2 -1 4 -1 7c0 29 27 68 67 68c37 0 71 -25 71 -77c0 -48 -36 -126 -128 -190zM68 323c0 39 32 70 70 70c36 0 67 -31 67 -70c0 -37 -31 -67 -67 -67c-38 0 -70 30 -70 67z" />
    <glyph glyph-name="less" unicode="&#x3c;" horiz-adv-x="379" 
d="M343 401l-153 -155l153 -153l-45 -90l-269 244l269 244z" />
    <glyph glyph-name="equal" unicode="=" horiz-adv-x="490" 
d="M43 201h398l-25 -94h-373v94zM43 386h408l-25 -94h-383v94z" />
    <glyph glyph-name="greater" unicode="&#x3e;" horiz-adv-x="379" 
d="M34 93l153 155l-153 153l45 90l269 -244l-269 -244z" />
    <glyph glyph-name="question" unicode="?" horiz-adv-x="439" 
d="M203 190l-101 35s-5 20 -5 35c0 130 179 199 179 302c0 59 -50 87 -101 87c-40 0 -96 -23 -96 -23l-33 108s76 26 141 26c105 0 215 -54 215 -187c0 -147 -206 -224 -206 -322c0 -11 0 -41 7 -61zM238 61c0 -41 -31 -74 -75 -74s-75 33 -75 74c0 38 31 75 75 75
s75 -37 75 -75z" />
    <glyph glyph-name="at" unicode="@" horiz-adv-x="912" 
d="M625 406v-231c0 -54 -1 -93 10 -105c84 0 126 119 126 212c0 160 -98 298 -286 298c-180 0 -327 -174 -327 -351c0 -159 124 -334 330 -342l-53 -91c-246 31 -378 231 -378 433c0 213 155 439 442 439c221 0 376 -164 376 -372c0 -144 -83 -311 -270 -311
c-12 0 -29 0 -45 2c-12 13 -27 43 -33 64c0 0 -35 -60 -107 -60c-110 0 -165 109 -165 214c0 178 117 301 287 301c46 0 102 -20 102 -20zM506 118l-1 300c-44 -9 -132 -45 -132 -202c0 -57 15 -124 64 -124c38 0 69 26 69 26z" />
    <glyph glyph-name="asciitilde" unicode="~" horiz-adv-x="588" 
d="M511 348l45 -89c-37 -38 -97 -67 -159 -67c-84 0 -141 56 -218 56c-33 0 -74 -12 -104 -46l-41 88c36 31 89 64 154 64c93 0 147 -56 213 -56c32 0 67 12 110 50z" />
    <glyph glyph-name="Adieresis" unicode="&#xc4;" horiz-adv-x="592" 
d="M-10 0l257 660l85 21l204 -557l56 -124h-145l-57 155h-221l-59 -155h-120zM273 451l-72 -193h160l-69 194l-9 39zM256 788c0 -34 -26 -61 -56 -61s-56 27 -56 61s26 62 56 62s56 -28 56 -62zM440 788c0 -34 -26 -61 -56 -61c-31 0 -56 27 -56 61s25 62 56 62
c30 0 56 -28 56 -62z" />
    <glyph glyph-name="Aring" unicode="&#xc5;" horiz-adv-x="592" 
d="M-10 0l257 660l85 21l204 -557l56 -124h-145l-57 155h-221l-59 -155h-120zM273 451l-72 -193h160l-69 194l-9 39zM383 791c0 -48 -43 -88 -91 -88c-47 0 -89 40 -89 88s42 88 89 88c48 0 91 -40 91 -88zM336 792c0 23 -21 43 -43 43c-24 0 -43 -20 -43 -43
c0 -22 18 -47 43 -47c28 0 43 25 43 47z" />
    <glyph glyph-name="Ccedilla" unicode="&#xc7;" horiz-adv-x="619" 
d="M595 597l-53 -96c-56 57 -116 80 -175 80c-113 0 -198 -117 -198 -251c0 -156 100 -241 208 -241c68 0 144 32 202 94l24 -103c-63 -58 -160 -93 -245 -93c-165 0 -324 112 -324 333c0 211 145 360 332 360c90 0 165 -26 229 -83zM292 -49l12 52h61
c33 -41 118 -63 118 -124c0 -80 -65 -114 -135 -114c-39 0 -81 14 -117 39l30 69c24 -24 64 -31 85 -31c20 0 37 7 37 27c0 29 -72 51 -91 82z" />
    <glyph glyph-name="Eacute" unicode="&#xc9;" 
d="M97 0v565l-14 103h383v-99h-239v-177h211l-25 -99h-186v-194h252l-25 -99h-357zM314 865h149l-185 -164l-79 28z" />
    <glyph glyph-name="Ntilde" unicode="&#xd1;" horiz-adv-x="742" 
d="M655 668v-582l7 -86h-83l-337 379l-39 63v-356l11 -86h-126v565l-14 103h100l328 -386l38 -62v345l-14 103h129zM490 831l54 -39s-20 -71 -111 -71c-61 0 -93 34 -121 34c-45 0 -66 -34 -66 -34l-52 37s28 73 114 73c52 0 86 -35 117 -35c16 0 49 2 65 35z" />
    <glyph glyph-name="Odieresis" unicode="&#xd6;" horiz-adv-x="690" 
d="M351 678c206 0 309 -141 309 -339c0 -200 -140 -352 -322 -352c-196 0 -307 149 -307 340c0 199 138 351 320 351zM169 333c0 -143 71 -249 177 -249s176 106 176 249s-70 249 -176 249s-177 -106 -177 -249zM308 788c0 -34 -26 -61 -56 -61s-56 27 -56 61s26 62 56 62
s56 -28 56 -62zM492 788c0 -34 -26 -61 -56 -61c-31 0 -56 27 -56 61s25 62 56 62c30 0 56 -28 56 -62z" />
    <glyph glyph-name="Udieresis" unicode="&#xdc;" horiz-adv-x="716" 
d="M529 257v308l-14 103h129v-400c0 -168 -112 -281 -288 -281c-256 0 -262 238 -262 255v323l-14 103h144v-418c0 -100 64 -165 150 -165c87 0 155 72 155 172zM328 788c0 -34 -26 -61 -56 -61s-56 27 -56 61s26 62 56 62s56 -28 56 -62zM512 788c0 -34 -26 -61 -56 -61
c-31 0 -56 27 -56 61s25 62 56 62c30 0 56 -28 56 -62z" />
    <glyph glyph-name="aacute" unicode="&#xe1;" horiz-adv-x="523" 
d="M111 356l-51 88s74 76 209 76c83 0 171 -34 171 -138v-259c0 -60 51 -120 51 -120l-126 -14s-25 28 -34 62c-39 -39 -96 -64 -151 -64c-87 0 -146 64 -146 131c0 105 104 188 282 194v19c0 70 -26 100 -68 100c-79 0 -137 -75 -137 -75zM221 79c31 0 73 21 95 43v102
c-49 -4 -154 -15 -154 -90c0 -28 19 -55 59 -55zM284 714h149l-185 -164l-79 28z" />
    <glyph glyph-name="agrave" unicode="&#xe0;" horiz-adv-x="523" 
d="M111 356l-51 88s74 76 209 76c83 0 171 -34 171 -138v-259c0 -60 51 -120 51 -120l-126 -14s-25 28 -34 62c-39 -39 -96 -64 -151 -64c-87 0 -146 64 -146 131c0 105 104 188 282 194v19c0 70 -26 100 -68 100c-79 0 -137 -75 -137 -75zM221 79c31 0 73 21 95 43v102
c-49 -4 -154 -15 -154 -90c0 -28 19 -55 59 -55zM82 724h149l115 -136l-79 -28z" />
    <glyph glyph-name="acircumflex" unicode="&#xe2;" horiz-adv-x="523" 
d="M111 356l-51 88s74 76 209 76c83 0 171 -34 171 -138v-259c0 -60 51 -120 51 -120l-126 -14s-25 28 -34 62c-39 -39 -96 -64 -151 -64c-87 0 -146 64 -146 131c0 105 104 188 282 194v19c0 70 -26 100 -68 100c-79 0 -137 -75 -137 -75zM221 79c31 0 73 21 95 43v102
c-49 -4 -154 -15 -154 -90c0 -28 19 -55 59 -55zM207 724h102l114 -133l-78 -30l-88 93l-86 -93l-78 30z" />
    <glyph glyph-name="adieresis" unicode="&#xe4;" horiz-adv-x="523" 
d="M111 356l-51 88s74 76 209 76c83 0 171 -34 171 -138v-259c0 -60 51 -120 51 -120l-126 -14s-25 28 -34 62c-39 -39 -96 -64 -151 -64c-87 0 -146 64 -146 131c0 105 104 188 282 194v19c0 70 -26 100 -68 100c-79 0 -137 -75 -137 -75zM221 79c31 0 73 21 95 43v102
c-49 -4 -154 -15 -154 -90c0 -28 19 -55 59 -55zM213 637c0 -34 -26 -61 -56 -61s-56 27 -56 61s26 62 56 62s56 -28 56 -62zM397 637c0 -34 -26 -61 -56 -61c-31 0 -56 27 -56 61s25 62 56 62c30 0 56 -28 56 -62z" />
    <glyph glyph-name="atilde" unicode="&#xe3;" horiz-adv-x="523" 
d="M111 356l-51 88s74 76 209 76c83 0 171 -34 171 -138v-259c0 -60 51 -120 51 -120l-126 -14s-25 28 -34 62c-39 -39 -96 -64 -151 -64c-87 0 -146 64 -146 131c0 105 104 188 282 194v19c0 70 -26 100 -68 100c-79 0 -137 -75 -137 -75zM221 79c31 0 73 21 95 43v102
c-49 -4 -154 -15 -154 -90c0 -28 19 -55 59 -55zM373 680l54 -39s-20 -71 -111 -71c-61 0 -93 34 -121 34c-45 0 -66 -34 -66 -34l-52 37s28 73 114 73c52 0 86 -35 117 -35c16 0 49 2 65 35z" />
    <glyph glyph-name="aring" unicode="&#xe5;" horiz-adv-x="523" 
d="M111 356l-51 88s74 76 209 76c83 0 171 -34 171 -138v-259c0 -60 51 -120 51 -120l-126 -14s-25 28 -34 62c-39 -39 -96 -64 -151 -64c-87 0 -146 64 -146 131c0 105 104 188 282 194v19c0 70 -26 100 -68 100c-79 0 -137 -75 -137 -75zM221 79c31 0 73 21 95 43v102
c-49 -4 -154 -15 -154 -90c0 -28 19 -55 59 -55zM340 640c0 -48 -43 -88 -91 -88c-47 0 -89 40 -89 88s42 88 89 88c48 0 91 -40 91 -88zM293 641c0 23 -21 43 -43 43c-24 0 -43 -20 -43 -43c0 -22 18 -47 43 -47c28 0 43 25 43 47z" />
    <glyph glyph-name="ccedilla" unicode="&#xe7;" horiz-adv-x="489" 
d="M467 453l-57 -90c-37 46 -86 62 -123 62c-86 0 -124 -82 -124 -172c0 -84 38 -164 120 -164c87 0 164 80 164 80l18 -104s-75 -78 -206 -78c-149 0 -223 128 -223 257c0 146 87 276 248 276c123 0 183 -67 183 -67zM211 -49l12 52h61c33 -41 118 -63 118 -124
c0 -80 -65 -114 -135 -114c-39 0 -81 14 -117 39l30 69c24 -24 64 -31 85 -31c20 0 37 7 37 27c0 29 -72 51 -91 82z" />
    <glyph glyph-name="eacute" unicode="&#xe9;" horiz-adv-x="499" 
d="M274 520c175 0 188 -187 190 -262l-24 -24h-277c5 -81 46 -145 125 -145c87 0 168 71 168 71l18 -102s-80 -71 -210 -71c-149 0 -228 124 -228 253c0 146 71 280 238 280zM262 435c-55 0 -83 -50 -94 -113h167c-3 48 -20 113 -73 113zM301 714h149l-185 -164l-79 28z" />
    <glyph glyph-name="egrave" unicode="&#xe8;" horiz-adv-x="499" 
d="M274 520c175 0 188 -187 190 -262l-24 -24h-277c5 -81 46 -145 125 -145c87 0 168 71 168 71l18 -102s-80 -71 -210 -71c-149 0 -228 124 -228 253c0 146 71 280 238 280zM262 435c-55 0 -83 -50 -94 -113h167c-3 48 -20 113 -73 113zM90 724h149l115 -136l-79 -28z" />
    <glyph glyph-name="ecircumflex" unicode="&#xea;" horiz-adv-x="499" 
d="M274 520c175 0 188 -187 190 -262l-24 -24h-277c5 -81 46 -145 125 -145c87 0 168 71 168 71l18 -102s-80 -71 -210 -71c-149 0 -228 124 -228 253c0 146 71 280 238 280zM262 435c-55 0 -83 -50 -94 -113h167c-3 48 -20 113 -73 113zM215 724h102l114 -133l-78 -30
l-88 93l-86 -93l-78 30z" />
    <glyph glyph-name="edieresis" unicode="&#xeb;" horiz-adv-x="499" 
d="M274 520c175 0 188 -187 190 -262l-24 -24h-277c5 -81 46 -145 125 -145c87 0 168 71 168 71l18 -102s-80 -71 -210 -71c-149 0 -228 124 -228 253c0 146 71 280 238 280zM262 435c-55 0 -83 -50 -94 -113h167c-3 48 -20 113 -73 113zM230 637c0 -34 -26 -61 -56 -61
s-56 27 -56 61s26 62 56 62s56 -28 56 -62zM414 637c0 -34 -26 -61 -56 -61c-31 0 -56 27 -56 61s25 62 56 62c30 0 56 -28 56 -62z" />
    <glyph glyph-name="iacute" unicode="&#xed;" horiz-adv-x="284" 
d="M204 520v-434l11 -86h-135v404l-14 101zM177 714h149l-185 -164l-79 28z" />
    <glyph glyph-name="igrave" unicode="&#xec;" horiz-adv-x="284" 
d="M204 520v-434l11 -86h-135v404l-14 101zM-34 724h149l115 -136l-79 -28z" />
    <glyph glyph-name="icircumflex" unicode="&#xee;" horiz-adv-x="284" 
d="M204 520v-434l11 -86h-135v404l-14 101zM91 724h102l114 -133l-78 -30l-88 93l-86 -93l-78 30z" />
    <glyph glyph-name="idieresis" unicode="&#xef;" horiz-adv-x="284" 
d="M204 520v-434l11 -86h-135v404l-14 101zM106 637c0 -34 -26 -61 -56 -61s-56 27 -56 61s26 62 56 62s56 -28 56 -62zM290 637c0 -34 -26 -61 -56 -61c-31 0 -56 27 -56 61s25 62 56 62c30 0 56 -28 56 -62z" />
    <glyph glyph-name="ntilde" unicode="&#xf1;" horiz-adv-x="593" 
d="M526 0h-135v292c0 94 -10 124 -61 124c-76 0 -125 -57 -125 -57v-273l11 -86h-135v403l-14 101l138 15v-61c44 40 104 62 159 62c76 0 151 -41 151 -128v-308zM430 680l54 -39s-20 -71 -111 -71c-61 0 -93 34 -121 34c-45 0 -66 -34 -66 -34l-52 37s28 73 114 73
c52 0 86 -35 117 -35c16 0 49 2 65 35z" />
    <glyph glyph-name="oacute" unicode="&#xf3;" horiz-adv-x="563" 
d="M529 264c0 -149 -97 -277 -264 -277c-152 0 -231 133 -231 259c0 149 95 274 265 274c131 0 230 -79 230 -256zM166 254c0 -100 43 -178 115 -178s115 78 115 178s-43 177 -115 177s-115 -77 -115 -177zM316 714h149l-185 -164l-79 28z" />
    <glyph glyph-name="ograve" unicode="&#xf2;" horiz-adv-x="563" 
d="M529 264c0 -149 -97 -277 -264 -277c-152 0 -231 133 -231 259c0 149 95 274 265 274c131 0 230 -79 230 -256zM166 254c0 -100 43 -178 115 -178s115 78 115 178s-43 177 -115 177s-115 -77 -115 -177zM105 724h149l115 -136l-79 -28z" />
    <glyph glyph-name="ocircumflex" unicode="&#xf4;" horiz-adv-x="563" 
d="M529 264c0 -149 -97 -277 -264 -277c-152 0 -231 133 -231 259c0 149 95 274 265 274c131 0 230 -79 230 -256zM166 254c0 -100 43 -178 115 -178s115 78 115 178s-43 177 -115 177s-115 -77 -115 -177zM230 724h102l114 -133l-78 -30l-88 93l-86 -93l-78 30z" />
    <glyph glyph-name="odieresis" unicode="&#xf6;" horiz-adv-x="563" 
d="M529 264c0 -149 -97 -277 -264 -277c-152 0 -231 133 -231 259c0 149 95 274 265 274c131 0 230 -79 230 -256zM166 254c0 -100 43 -178 115 -178s115 78 115 178s-43 177 -115 177s-115 -77 -115 -177zM245 637c0 -34 -26 -61 -56 -61s-56 27 -56 61s26 62 56 62
s56 -28 56 -62zM429 637c0 -34 -26 -61 -56 -61c-31 0 -56 27 -56 61s25 62 56 62c30 0 56 -28 56 -62z" />
    <glyph glyph-name="otilde" unicode="&#xf5;" horiz-adv-x="563" 
d="M529 264c0 -149 -97 -277 -264 -277c-152 0 -231 133 -231 259c0 149 95 274 265 274c131 0 230 -79 230 -256zM166 254c0 -100 43 -178 115 -178s115 78 115 178s-43 177 -115 177s-115 -77 -115 -177zM405 680l54 -39s-20 -71 -111 -71c-61 0 -93 34 -121 34
c-45 0 -66 -34 -66 -34l-52 37s28 73 114 73c52 0 86 -35 117 -35c16 0 49 2 65 35z" />
    <glyph glyph-name="uacute" unicode="&#xfa;" horiz-adv-x="592" 
d="M561 5l-130 -18s-25 32 -32 68c0 0 -66 -68 -172 -68c-76 0 -151 41 -151 128v288l-14 101l138 15v-304c0 -88 8 -125 58 -125c81 0 128 62 128 62v251l-14 101l138 15v-394c0 -60 51 -120 51 -120zM328 714h149l-185 -164l-79 28z" />
    <glyph glyph-name="ugrave" unicode="&#xf9;" horiz-adv-x="592" 
d="M561 5l-130 -18s-25 32 -32 68c0 0 -66 -68 -172 -68c-76 0 -151 41 -151 128v288l-14 101l138 15v-304c0 -88 8 -125 58 -125c81 0 128 62 128 62v251l-14 101l138 15v-394c0 -60 51 -120 51 -120zM117 724h149l115 -136l-79 -28z" />
    <glyph glyph-name="ucircumflex" unicode="&#xfb;" horiz-adv-x="592" 
d="M561 5l-130 -18s-25 32 -32 68c0 0 -66 -68 -172 -68c-76 0 -151 41 -151 128v288l-14 101l138 15v-304c0 -88 8 -125 58 -125c81 0 128 62 128 62v251l-14 101l138 15v-394c0 -60 51 -120 51 -120zM242 724h102l114 -133l-78 -30l-88 93l-86 -93l-78 30z" />
    <glyph glyph-name="udieresis" unicode="&#xfc;" horiz-adv-x="592" 
d="M561 5l-130 -18s-25 32 -32 68c0 0 -66 -68 -172 -68c-76 0 -151 41 -151 128v288l-14 101l138 15v-304c0 -88 8 -125 58 -125c81 0 128 62 128 62v251l-14 101l138 15v-394c0 -60 51 -120 51 -120zM257 637c0 -34 -26 -61 -56 -61s-56 27 -56 61s26 62 56 62
s56 -28 56 -62zM441 637c0 -34 -26 -61 -56 -61c-31 0 -56 27 -56 61s25 62 56 62c30 0 56 -28 56 -62z" />
    <glyph glyph-name="dagger" unicode="&#x2020;" horiz-adv-x="497" 
d="M289 -245h-123v657h-129v93h129v143l123 15v-158h167l-39 -93h-128v-657z" />
    <glyph glyph-name="degree" unicode="&#xb0;" horiz-adv-x="409" 
d="M365 576c0 -91 -80 -167 -170 -167c-88 0 -167 76 -167 167s79 167 167 167c90 0 170 -76 170 -167zM275 577c0 42 -39 77 -79 77c-42 0 -78 -35 -78 -77c0 -39 33 -82 78 -82c50 0 79 43 79 82z" />
    <glyph glyph-name="cent" unicode="&#xa2;" horiz-adv-x="492" 
d="M321 594v-76c101 -11 149 -69 149 -69l-63 -80c-27 33 -57 47 -86 53v-326c71 16 129 76 129 76l18 -107s-54 -55 -147 -72v-87h-61v81c-148 1 -221 128 -221 257c0 137 77 260 221 274v76h61zM166 253c0 -75 30 -144 94 -159v327c-65 -17 -94 -90 -94 -168z" />
    <glyph glyph-name="sterling" unicode="&#xa3;" horiz-adv-x="559" 
d="M531 -102h-510s83 177 83 340v25h-61v88h61v194c0 145 141 209 227 209c135 0 197 -64 197 -64l-36 -94c-26 27 -91 65 -150 65s-111 -32 -111 -108v-202h204l-32 -88h-172v-34c0 -108 -48 -237 -48 -237h373z" />
    <glyph glyph-name="section" unicode="&#xa7;" horiz-adv-x="430" 
d="M287 658l78 -538c17 -114 19 -123 19 -131c0 -107 -96 -168 -202 -168c-114 0 -153 76 -153 76l6 97c44 -53 85 -71 118 -76c-97 624 -97 658 -97 668c0 106 95 169 201 169c114 0 153 -76 153 -76l-6 -97c-46 55 -85 71 -117 76zM154 586l95 -653c20 13 35 31 35 57
c0 4 0 34 -96 654c-20 -12 -34 -30 -34 -58z" />
    <glyph glyph-name="bullet" unicode="&#x2022;" horiz-adv-x="434" 
d="M216 399c84 0 153 -68 153 -152c0 -86 -69 -154 -153 -154c-86 0 -154 68 -154 154c0 84 68 152 154 152z" />
    <glyph glyph-name="paragraph" unicode="&#xb6;" horiz-adv-x="652" 
d="M43 370c0 168 140 298 314 298h75v-912h-95v317c-163 11 -294 136 -294 297zM592 668v-912h-95v912h95z" />
    <glyph glyph-name="germandbls" unicode="&#xdf;" horiz-adv-x="592" 
d="M263 24l13 103s67 -47 111 -47c37 0 68 10 68 56c0 69 -175 125 -175 230c0 103 116 125 116 231c0 29 -24 64 -68 64c-69 0 -118 -42 -118 -108v-439l11 -114h-135v413h-61v88h61v44c0 145 146 209 237 209c87 0 194 -37 194 -150c0 -100 -110 -148 -110 -208
c0 -89 175 -140 175 -252c0 -81 -73 -157 -196 -157c-71 0 -123 37 -123 37z" />
    <glyph glyph-name="registered" unicode="&#xae;" horiz-adv-x="800" 
d="M584 156h-121l-89 131v-79c0 -3 1 -13 7 -52h-108v298l-7 64h124c73 0 142 -39 142 -118c0 -38 -28 -83 -70 -102zM374 335h4c31 0 64 21 64 65c0 43 -33 56 -64 56h-4v-121zM750 340c0 -215 -139 -353 -366 -353c-192 0 -334 145 -334 335c0 214 144 346 375 346
c190 0 325 -139 325 -328zM658 327c0 160 -106 265 -254 265c-142 0 -260 -96 -260 -258c0 -166 102 -269 262 -269c136 0 252 101 252 262z" />
    <glyph glyph-name="copyright" unicode="&#xa9;" horiz-adv-x="800" 
d="M540 473l-37 -72s-47 43 -96 43c-48 0 -83 -47 -83 -109c0 -59 34 -113 88 -113c55 0 115 49 115 49l10 -79s-54 -52 -150 -53c-109 -1 -165 91 -165 185c0 107 62 200 187 200c72 0 131 -51 131 -51zM750 340c0 -215 -139 -353 -366 -353c-192 0 -334 145 -334 335
c0 214 144 346 375 346c190 0 325 -139 325 -328zM658 327c0 160 -106 265 -254 265c-142 0 -260 -96 -260 -258c0 -166 102 -269 262 -269c136 0 252 101 252 262z" />
    <glyph glyph-name="trademark" unicode="&#x2122;" horiz-adv-x="812" 
d="M27 627v78h289v-78h-93v-241l7 -57h-114v298h-89zM570 341l-120 165v-120l7 -57h-108v311l-8 65h78l152 -214l136 214h77v-319l7 -57h-118v172z" />
    <glyph glyph-name="acute" unicode="&#xb4;" horiz-adv-x="348" 
d="M182 724h149l-185 -164l-79 28z" />
    <glyph glyph-name="dieresis" unicode="&#xa8;" horiz-adv-x="394" 
d="M163 637c0 -34 -26 -61 -56 -61s-56 27 -56 61s26 62 56 62s56 -28 56 -62zM347 637c0 -34 -26 -61 -56 -61c-31 0 -56 27 -56 61s25 62 56 62c30 0 56 -28 56 -62z" />
    <glyph glyph-name="notequal" unicode="&#x2260;" horiz-adv-x="480" 
 />
    <glyph glyph-name="AE" unicode="&#xc6;" horiz-adv-x="776" 
d="M363 0v164h-172l-78 -164h-123l325 668h417v-99h-239v-177h211l-25 -99h-186v-194h252l-25 -99h-357zM235 258h128v284z" />
    <glyph glyph-name="Oslash" unicode="&#xd8;" horiz-adv-x="690" 
d="M351 678c12 0 24 -1 36 -2l19 81h76l-22 -95c133 -42 200 -164 200 -323c0 -200 -140 -352 -322 -352c-13 0 -25 1 -37 2l-19 -80h-73l22 95c-129 44 -200 170 -200 323c0 199 138 351 320 351zM522 333c0 98 -33 179 -88 220l-110 -467c7 -1 14 -2 22 -2
c106 0 176 106 176 249zM169 333c0 -98 33 -178 87 -219l109 466c-7 1 -13 2 -19 2c-106 0 -177 -106 -177 -249z" />
    <glyph glyph-name="infinity" unicode="&#x221e;" horiz-adv-x="619" 
 />
    <glyph glyph-name="plusminus" unicode="&#xb1;" horiz-adv-x="481" 
d="M186 160v114h-143v98h143v135l110 -30v-105h151l-25 -98h-126v-114h-110zM67 104h352l-28 -104h-324v104z" />
    <glyph glyph-name="lessequal" unicode="&#x2264;" horiz-adv-x="225" 
 />
    <glyph glyph-name="greaterequal" unicode="&#x2265;" horiz-adv-x="225" 
 />
    <glyph glyph-name="yen" unicode="&#xa5;" horiz-adv-x="550" 
d="M88 357h91l-117 225l2 -1l-64 87h159l118 -228l13 -39l15 39l118 228h127l-174 -311h113l-18 -84h-126v-79h134l-18 -84h-116v-24l11 -86h-141v110h-127v84h127v79h-127v84z" />
    <glyph glyph-name="mu" unicode="&#xb5;" horiz-adv-x="519" 
 />
    <glyph glyph-name="mu" unicode="&#x3bc;" horiz-adv-x="519" 
 />
    <glyph glyph-name="partialdiff" unicode="&#x2202;" horiz-adv-x="22" 
d="M17 694v-694h-12v694h12z" />
    <glyph glyph-name="summation" unicode="&#x2211;" horiz-adv-x="474" 
 />
    <glyph glyph-name="product" unicode="&#x220f;" horiz-adv-x="424" 
 />
    <glyph glyph-name="pi" unicode="&#x3c0;" horiz-adv-x="424" 
 />
    <glyph glyph-name="integral" unicode="&#x222b;" 
d="M80 0v96h123v365l-98 -30l-36 89l258 85v-509h123l-14 -96h-356z" />
    <glyph glyph-name="ordfeminine" unicode="&#xaa;" horiz-adv-x="415" 
d="M88 547l-47 62s54 66 165 66c69 0 133 -27 133 -102v-191c0 -41 40 -87 40 -87l-112 -12s-22 19 -25 48c-29 -36 -65 -49 -93 -49c-83 0 -122 53 -122 103c0 71 72 127 202 134v21c0 45 -19 61 -42 61c-59 0 -99 -54 -99 -54zM229 389v67c-34 -5 -95 -13 -95 -60
c0 -19 15 -41 38 -41c18 0 42 19 57 34z" />
    <glyph glyph-name="ordmasculine" unicode="&#xba;" horiz-adv-x="452" 
d="M33 472c0 118 77 200 201 200c100 0 176 -57 176 -186c0 -110 -73 -205 -201 -205c-172 0 -176 179 -176 191zM150 479c0 -70 26 -124 71 -124s72 54 72 124s-27 119 -72 119s-71 -49 -71 -119z" />
    <glyph glyph-name="Omega" unicode="&#x3a9;" horiz-adv-x="368" 
 />
    <glyph glyph-name="Omega" unicode="&#x2126;" horiz-adv-x="368" 
 />
    <glyph glyph-name="ae" unicode="&#xe6;" horiz-adv-x="766" 
d="M114 356l-58 85s74 79 212 79c50 0 107 -22 135 -55c31 28 84 55 143 55c175 0 188 -187 190 -262l-24 -24l-277 -3c5 -81 41 -139 120 -139c92 0 168 72 168 72l18 -105s-75 -72 -210 -72c-73 0 -129 30 -166 76c-3 3 -5 6 -7 9c-47 -40 -114 -85 -169 -85
c-107 0 -155 65 -155 134c0 98 101 178 284 184v26c0 70 -29 100 -71 100c-79 0 -133 -75 -133 -75zM220 79c31 0 91 28 113 50c0 0 -15 59 -15 95c-49 -4 -158 -19 -158 -86c0 -29 18 -59 60 -59zM534 435c-55 0 -83 -58 -94 -121l167 3c-3 48 -20 118 -73 118z" />
    <glyph glyph-name="oslash" unicode="&#xf8;" horiz-adv-x="563" 
d="M413 658l-36 -149c90 -27 152 -106 152 -245c0 -149 -97 -277 -264 -277c-4 0 -8 1 -12 1l-37 -155h-73l39 167c-145 50 -148 230 -148 245c0 161 101 275 265 275h5l33 138h76zM396 254c0 61 -16 113 -45 145l-77 -323h7c72 0 115 78 115 178zM166 254
c0 -60 15 -111 42 -143l75 320h-2c-72 0 -115 -77 -115 -177z" />
    <glyph glyph-name="questiondown" unicode="&#xbf;" horiz-adv-x="439" 
d="M234 453l102 16c10 -32 13 -55 13 -73c0 -123 -186 -178 -186 -300c0 -59 50 -87 101 -87c40 0 91 33 91 33l38 -108c-36 -19 -86 -32 -141 -32c-105 0 -215 50 -215 183c0 173 204 214 204 322c0 11 0 26 -7 46zM201 597c0 41 31 74 75 74s75 -33 75 -74
c0 -38 -31 -75 -75 -75s-75 37 -75 75z" />
    <glyph glyph-name="exclamdown" unicode="&#xa1;" horiz-adv-x="274" 
d="M62 -108l28 549l92 15l21 -451l14 -93zM59 597c0 41 31 74 75 74s75 -33 75 -74c0 -38 -31 -75 -75 -75s-75 37 -75 75z" />
    <glyph glyph-name="logicalnot" unicode="&#xac;" horiz-adv-x="535" 
 />
    <glyph glyph-name="radical" unicode="&#x221a;" horiz-adv-x="225" 
 />
    <glyph glyph-name="florin" unicode="&#x192;" horiz-adv-x="493" 
d="M455 505l-45 -85h-97l-60 -432c-19 -137 -110 -230 -237 -231l-30 85c80 0 135 52 147 147l56 431h-72l17 85h65l7 58c21 141 115 191 200 191c41 0 74 -7 114 -32l-46 -94s-24 24 -74 24c-26 0 -58 -24 -66 -74l-11 -73h132z" />
    <glyph glyph-name="approxequal" unicode="&#x2248;" horiz-adv-x="669" 
 />
    <glyph glyph-name="Delta" unicode="&#x394;" horiz-adv-x="669" 
 />
    <glyph glyph-name="Delta" unicode="&#x2206;" horiz-adv-x="669" 
 />
    <glyph glyph-name="guillemotleft" unicode="&#xab;" horiz-adv-x="642" 
d="M339 401l-153 -155l153 -153l-45 -90l-269 244l269 244zM607 401l-153 -155l153 -153l-45 -90l-269 244l269 244z" />
    <glyph glyph-name="guillemotright" unicode="&#xbb;" horiz-adv-x="642" 
d="M456 246l-153 155l45 90l269 -244l-269 -244l-45 90zM188 246l-153 155l45 90l269 -244l-269 -244l-45 90z" />
    <glyph glyph-name="ellipsis" unicode="&#x2026;" horiz-adv-x="737" 
d="M197 51c0 -36 -28 -64 -62 -64c-36 0 -64 28 -64 64c0 34 28 62 64 62c34 0 62 -28 62 -62zM432 51c0 -36 -28 -64 -62 -64c-35 0 -64 28 -64 64c0 34 29 62 64 62c34 0 62 -28 62 -62zM663 51c0 -36 -28 -64 -63 -64s-63 28 -63 64c0 34 28 62 63 62s63 -28 63 -62z" />
    <glyph glyph-name="Agrave" unicode="&#xc0;" horiz-adv-x="592" 
d="M-10 0l257 660l85 21l204 -557l56 -124h-145l-57 155h-221l-59 -155h-120zM273 451l-72 -193h160l-69 194l-9 39zM116 875h149l115 -136l-79 -28z" />
    <glyph glyph-name="Atilde" unicode="&#xc3;" horiz-adv-x="592" 
d="M-10 0l257 660l85 21l204 -557l56 -124h-145l-57 155h-221l-59 -155h-120zM273 451l-72 -193h160l-69 194l-9 39zM416 831l54 -39s-20 -71 -111 -71c-61 0 -93 34 -121 34c-45 0 -66 -34 -66 -34l-52 37s28 73 114 73c52 0 86 -35 117 -35c16 0 49 2 65 35z" />
    <glyph glyph-name="Otilde" unicode="&#xd5;" horiz-adv-x="690" 
d="M351 678c206 0 309 -141 309 -339c0 -200 -140 -352 -322 -352c-196 0 -307 149 -307 340c0 199 138 351 320 351zM169 333c0 -143 71 -249 177 -249s176 106 176 249s-70 249 -176 249s-177 -106 -177 -249zM468 831l54 -39s-20 -71 -111 -71c-61 0 -93 34 -121 34
c-45 0 -66 -34 -66 -34l-52 37s28 73 114 73c52 0 86 -35 117 -35c16 0 49 2 65 35z" />
    <glyph glyph-name="OE" unicode="&#x152;" horiz-adv-x="846" 
d="M31 329c0 230 146 339 295 339h476v-99h-239v-177h211l-25 -99h-186v-194h252l-25 -99h-434c-198 0 -325 136 -325 329zM168 323c0 -134 74 -236 176 -236h89v498h-89c-102 0 -176 -126 -176 -262z" />
    <glyph glyph-name="oe" unicode="&#x153;" horiz-adv-x="855" 
d="M635 520c175 0 188 -187 190 -262l-24 -24h-277c5 -81 41 -142 120 -142c92 0 168 72 168 72l18 -105s-75 -72 -210 -72c-74 0 -129 30 -166 76c-45 -47 -109 -76 -189 -76c-226 0 -231 241 -231 258c0 161 101 275 265 275c68 0 128 -22 169 -68c39 42 93 68 167 68z
M166 254c0 -100 43 -178 115 -178s117 78 117 178s-45 177 -117 177s-115 -77 -115 -177zM623 435c-55 0 -83 -50 -94 -113h167c-3 48 -20 113 -73 113z" />
    <glyph glyph-name="endash" unicode="&#x2013;" horiz-adv-x="462" 
d="M36 299h403l-28 -104h-375v104z" />
    <glyph glyph-name="emdash" unicode="&#x2014;" horiz-adv-x="689" 
d="M36 299h628l-28 -104h-600v104z" />
    <glyph glyph-name="quotedblleft" unicode="&#x201c;" horiz-adv-x="455" 
d="M189 684l40 -49c-37 -33 -59 -68 -59 -97c0 -28 10 -37 29 -46v-7c0 -29 -27 -68 -67 -68c-37 0 -71 25 -71 77c0 48 36 126 128 190zM364 684l40 -49c-37 -33 -59 -68 -59 -97c0 -28 10 -37 29 -46v-7c0 -29 -27 -68 -67 -68c-37 0 -71 25 -71 77c0 48 36 126 128 190z
" />
    <glyph glyph-name="quotedblright" unicode="&#x201d;" horiz-adv-x="455" 
d="M101 417l-40 49c37 33 59 68 59 97c0 28 -10 37 -29 46v7c0 29 27 68 67 68c37 0 71 -25 71 -77c0 -48 -36 -126 -128 -190zM276 417l-40 49c37 33 59 68 59 97c0 28 -10 37 -29 46v7c0 29 27 68 67 68c37 0 71 -25 71 -77c0 -48 -36 -126 -128 -190z" />
    <glyph glyph-name="quoteleft" unicode="&#x2018;" horiz-adv-x="280" 
d="M189 684l40 -49c-37 -33 -59 -68 -59 -97c0 -28 10 -37 29 -46v-7c0 -29 -27 -68 -67 -68c-37 0 -71 25 -71 77c0 48 36 126 128 190z" />
    <glyph glyph-name="quoteright" unicode="&#x2019;" horiz-adv-x="280" 
d="M91 417l-40 49c37 33 59 68 59 97c0 28 -10 37 -29 46v7c0 29 27 68 67 68c37 0 71 -25 71 -77c0 -48 -36 -126 -128 -190z" />
    <glyph glyph-name="divide" unicode="&#xf7;" horiz-adv-x="483" 
d="M167 411c0 39 32 70 70 70c36 0 67 -31 67 -70c0 -37 -31 -67 -67 -67c-38 0 -70 30 -70 67zM167 83c0 39 32 70 70 70c36 0 67 -31 67 -70c0 -37 -31 -67 -67 -67c-38 0 -70 30 -70 67zM67 297h352l-28 -99h-324v99z" />
    <glyph glyph-name="lozenge" unicode="&#x25ca;" horiz-adv-x="476" 
 />
    <glyph glyph-name="ydieresis" unicode="&#xff;" horiz-adv-x="513" 
d="M513 519l-247 -607c-44 -108 -117 -155 -198 -155c-20 0 -44 3 -72 14l-17 120s41 -17 74 -17c57 0 100 30 135 129l-139 403l-49 93l138 18l104 -320l11 -67l17 67l112 303zM226 637c0 -34 -26 -61 -56 -61s-56 27 -56 61s26 62 56 62s56 -28 56 -62zM410 637
c0 -34 -26 -61 -56 -61c-31 0 -56 27 -56 61s25 62 56 62c30 0 56 -28 56 -62z" />
    <glyph glyph-name="Ydieresis" unicode="&#x178;" horiz-adv-x="550" 
d="M345 299v-213l11 -86h-141v289l-153 294l-62 85h159l118 -228l13 -39l13 39l117 228h130zM252 788c0 -34 -26 -61 -56 -61s-56 27 -56 61s26 62 56 62s56 -28 56 -62zM436 788c0 -34 -26 -61 -56 -61c-31 0 -56 27 -56 61s25 62 56 62c30 0 56 -28 56 -62z" />
    <glyph glyph-name="fraction" unicode="&#x2044;" horiz-adv-x="544" 
d="M565 639l-442 -639h-127l467 679z" />
    <glyph glyph-name="Euro" unicode="&#x20ac;" horiz-adv-x="611" 
d="M4 450h68c42 146 168 228 315 228c61 0 138 -17 190 -51l-36 -100c-63 49 -118 52 -162 52c-80 0 -155 -47 -184 -129h318l-32 -89h-303c-2 -25 -4 -48 0 -73h285l-32 -89h-240c27 -80 94 -110 185 -110c48 0 120 17 184 70v-114c-63 -40 -135 -58 -202 -58
c-131 0 -250 59 -288 212h-66v89h57c-2 19 0 67 1 73h-58v89z" />
    <glyph glyph-name="guilsinglleft" unicode="&#x2039;" horiz-adv-x="374" 
d="M339 401l-153 -155l153 -153l-45 -90l-269 244l269 244z" />
    <glyph glyph-name="guilsinglright" unicode="&#x203a;" horiz-adv-x="374" 
d="M35 93l153 155l-153 153l45 90l269 -244l-269 -244z" />
    <glyph glyph-name="daggerdbl" unicode="&#x2021;" horiz-adv-x="497" 
d="M289 -245h-123v245h-129v93h129v319h-129v93h129v143l123 15v-158h167l-39 -93h-128v-319h154l-39 -93h-115v-245z" />
    <glyph glyph-name="periodcentered" unicode="&#xb7;" horiz-adv-x="268" 
d="M201 245c0 -41 -31 -74 -75 -74s-75 33 -75 74c0 38 31 75 75 75s75 -37 75 -75z" />
    <glyph glyph-name="quotesinglbase" unicode="&#x201a;" horiz-adv-x="280" 
d="M91 -133l-40 49c37 33 59 68 59 97c0 28 -10 37 -29 46v7c0 29 27 68 67 68c37 0 71 -25 71 -77c0 -48 -36 -126 -128 -190z" />
    <glyph glyph-name="quotedblbase" unicode="&#x201e;" horiz-adv-x="455" 
d="M91 -133l-40 49c37 33 59 68 59 97c0 28 -10 37 -29 46v7c0 29 27 68 67 68c37 0 71 -25 71 -77c0 -48 -36 -126 -128 -190zM266 -133l-40 49c37 33 59 68 59 97c0 28 -10 37 -29 46v7c0 29 27 68 67 68c37 0 71 -25 71 -77c0 -48 -36 -126 -128 -190z" />
    <glyph glyph-name="perthousand" unicode="&#x2030;" horiz-adv-x="1234" 
d="M387 507c0 -89 -78 -163 -166 -163c-86 0 -163 74 -163 163s77 163 163 163c88 0 166 -74 166 -163zM299 508c0 41 -38 75 -77 75c-41 0 -76 -34 -76 -75c0 -38 32 -80 76 -80c49 0 77 42 77 80zM707 647l-448 -647h-117l470 688zM802 150c0 -89 -78 -163 -166 -163
c-86 0 -163 74 -163 163s77 163 163 163c88 0 166 -74 166 -163zM714 151c0 41 -38 75 -77 75c-41 0 -76 -34 -76 -75c0 -38 32 -80 76 -80c49 0 77 42 77 80zM1176 150c0 -89 -78 -163 -166 -163c-86 0 -163 74 -163 163s77 163 163 163c88 0 166 -74 166 -163zM1088 151
c0 41 -38 75 -77 75c-41 0 -76 -34 -76 -75c0 -38 32 -80 76 -80c49 0 77 42 77 80z" />
    <glyph glyph-name="Acircumflex" unicode="&#xc2;" horiz-adv-x="592" 
d="M-10 0l257 660l85 21l204 -557l56 -124h-145l-57 155h-221l-59 -155h-120zM273 451l-72 -193h160l-69 194l-9 39zM241 875h102l114 -133l-78 -30l-88 93l-86 -93l-78 30z" />
    <glyph glyph-name="Ecircumflex" unicode="&#xca;" 
d="M97 0v565l-14 103h383v-99h-239v-177h211l-25 -99h-186v-194h252l-25 -99h-357zM228 875h102l114 -133l-78 -30l-88 93l-86 -93l-78 30z" />
    <glyph glyph-name="Aacute" unicode="&#xc1;" horiz-adv-x="592" 
d="M-10 0l257 660l85 21l204 -557l56 -124h-145l-57 155h-221l-59 -155h-120zM273 451l-72 -193h160l-69 194l-9 39zM327 865h149l-185 -164l-79 28z" />
    <glyph glyph-name="Edieresis" unicode="&#xcb;" 
d="M97 0v565l-14 103h383v-99h-239v-177h211l-25 -99h-186v-194h252l-25 -99h-357zM243 788c0 -34 -26 -61 -56 -61s-56 27 -56 61s26 62 56 62s56 -28 56 -62zM427 788c0 -34 -26 -61 -56 -61c-31 0 -56 27 -56 61s25 62 56 62c30 0 56 -28 56 -62z" />
    <glyph glyph-name="Egrave" unicode="&#xc8;" 
d="M97 0v565l-14 103h383v-99h-239v-177h211l-25 -99h-186v-194h252l-25 -99h-357zM103 875h149l115 -136l-79 -28z" />
    <glyph glyph-name="Iacute" unicode="&#xcd;" horiz-adv-x="329" 
d="M228 668v-582l11 -86h-141v565l-14 103h144zM200 865h149l-185 -164l-79 28z" />
    <glyph glyph-name="Icircumflex" unicode="&#xce;" horiz-adv-x="329" 
d="M228 668v-582l11 -86h-141v565l-14 103h144zM114 875h102l114 -133l-78 -30l-88 93l-86 -93l-78 30z" />
    <glyph glyph-name="Idieresis" unicode="&#xcf;" horiz-adv-x="329" 
d="M228 668v-582l11 -86h-141v565l-14 103h144zM129 788c0 -34 -26 -61 -56 -61s-56 27 -56 61s26 62 56 62s56 -28 56 -62zM313 788c0 -34 -26 -61 -56 -61c-31 0 -56 27 -56 61s25 62 56 62c30 0 56 -28 56 -62z" />
    <glyph glyph-name="Igrave" unicode="&#xcc;" horiz-adv-x="329" 
d="M228 668v-582l11 -86h-141v565l-14 103h144zM-11 875h149l115 -136l-79 -28z" />
    <glyph glyph-name="Oacute" unicode="&#xd3;" horiz-adv-x="690" 
d="M351 678c206 0 309 -141 309 -339c0 -200 -140 -352 -322 -352c-196 0 -307 149 -307 340c0 199 138 351 320 351zM169 333c0 -143 71 -249 177 -249s176 106 176 249s-70 249 -176 249s-177 -106 -177 -249zM379 865h149l-185 -164l-79 28z" />
    <glyph glyph-name="Ocircumflex" unicode="&#xd4;" horiz-adv-x="690" 
d="M351 678c206 0 309 -141 309 -339c0 -200 -140 -352 -322 -352c-196 0 -307 149 -307 340c0 199 138 351 320 351zM169 333c0 -143 71 -249 177 -249s176 106 176 249s-70 249 -176 249s-177 -106 -177 -249zM293 875h102l114 -133l-78 -30l-88 93l-86 -93l-78 30z" />
    <glyph glyph-name="apple" horiz-adv-x="1029" 
d="M989 418v-252l-112 -66v-138l-241 -128l-120 64l-122 -64l-241 128v138l-113 66v252l113 65v137l241 129l122 -65l120 65l241 -129v-137zM943 178v227l-102 59v124l-218 115l-107 -59l-110 59l-217 -115v-124l-103 -59v-227l103 -58v-125l217 -116l110 60l107 -60
l218 116v125zM900 393v-203l-92 -54v-111l-195 -104l-97 53l-100 -53l-194 104v111l-91 54v203l91 54v111l194 104l100 -54l97 54l195 -104v-111zM373 530l13 -92v-386h107l-17 58v151h169l20 74h-189v121h219v74h-322z" />
    <glyph glyph-name="Ograve" unicode="&#xd2;" horiz-adv-x="690" 
d="M351 678c206 0 309 -141 309 -339c0 -200 -140 -352 -322 -352c-196 0 -307 149 -307 340c0 199 138 351 320 351zM169 333c0 -143 71 -249 177 -249s176 106 176 249s-70 249 -176 249s-177 -106 -177 -249zM168 875h149l115 -136l-79 -28z" />
    <glyph glyph-name="Uacute" unicode="&#xda;" horiz-adv-x="716" 
d="M529 257v308l-14 103h129v-400c0 -168 -112 -281 -288 -281c-256 0 -262 238 -262 255v323l-14 103h144v-418c0 -100 64 -165 150 -165c87 0 155 72 155 172zM399 865h149l-185 -164l-79 28z" />
    <glyph glyph-name="Ucircumflex" unicode="&#xdb;" horiz-adv-x="716" 
d="M529 257v308l-14 103h129v-400c0 -168 -112 -281 -288 -281c-256 0 -262 238 -262 255v323l-14 103h144v-418c0 -100 64 -165 150 -165c87 0 155 72 155 172zM313 875h102l114 -133l-78 -30l-88 93l-86 -93l-78 30z" />
    <glyph glyph-name="Ugrave" unicode="&#xd9;" horiz-adv-x="716" 
d="M529 257v308l-14 103h129v-400c0 -168 -112 -281 -288 -281c-256 0 -262 238 -262 255v323l-14 103h144v-418c0 -100 64 -165 150 -165c87 0 155 72 155 172zM188 875h149l115 -136l-79 -28z" />
    <glyph glyph-name="dotlessi" unicode="&#x131;" horiz-adv-x="284" 
d="M204 520v-434l11 -86h-135v404l-14 101z" />
    <glyph glyph-name="circumflex" unicode="&#x2c6;" horiz-adv-x="412" 
d="M154 724h102l114 -133l-78 -30l-88 93l-86 -93l-78 30z" />
    <glyph glyph-name="tilde" unicode="&#x2dc;" horiz-adv-x="390" 
d="M326 680l54 -39s-20 -71 -111 -71c-61 0 -93 34 -121 34c-45 0 -66 -34 -66 -34l-52 37s28 73 114 73c52 0 86 -35 117 -35c16 0 49 2 65 35z" />
    <glyph glyph-name="macron" unicode="&#xaf;" horiz-adv-x="345" 
d="M38 665h274l-26 -98h-248v98z" />
    <glyph glyph-name="breve" unicode="&#x2d8;" horiz-adv-x="412" 
d="M199 636c46 0 84 96 84 96l85 -29s-44 -157 -169 -157s-169 157 -169 157l85 29s38 -96 84 -96z" />
    <glyph glyph-name="dotaccent" unicode="&#x2d9;" horiz-adv-x="196" 
d="M165 638c0 -36 -31 -65 -69 -65c-39 0 -70 29 -70 65c0 35 31 64 70 64c38 0 69 -29 69 -64z" />
    <glyph glyph-name="ring" unicode="&#x2da;" horiz-adv-x="530" 
d="M351 650c0 -48 -43 -88 -91 -88c-47 0 -89 40 -89 88s42 88 89 88c48 0 91 -40 91 -88zM304 651c0 23 -21 43 -43 43c-24 0 -43 -20 -43 -43c0 -22 18 -47 43 -47c28 0 43 25 43 47z" />
    <glyph glyph-name="cedilla" unicode="&#xb8;" horiz-adv-x="412" 
d="M125 -49l12 52h61c33 -41 118 -63 118 -124c0 -80 -65 -114 -135 -114c-39 0 -81 14 -117 39l30 69c24 -24 64 -31 85 -31c20 0 37 7 37 27c0 29 -72 51 -91 82z" />
    <glyph glyph-name="hungarumlaut" unicode="&#x2dd;" horiz-adv-x="595" 
d="M163 724h149l-185 -164l-79 28zM367 724h149l-185 -164l-79 28z" />
    <glyph glyph-name="ogonek" unicode="&#x2db;" horiz-adv-x="286" 
d="M133 15h98c-11 -9 -169 -160 -55 -160h48v-84c-13 -3 -29 -4 -46 -4c-62 0 -140 20 -140 86c0 56 50 124 95 162z" />
    <glyph glyph-name="caron" unicode="&#x2c7;" horiz-adv-x="412" 
d="M256 561h-102l-114 133l78 30l88 -93l86 93l78 -30z" />
    <glyph glyph-name="yacute" unicode="&#xfd;" horiz-adv-x="513" 
d="M513 519l-247 -607c-44 -108 -117 -155 -198 -155c-20 0 -44 3 -72 14l-17 120s41 -17 74 -17c57 0 100 30 135 129l-139 403l-49 93l138 18l104 -320l11 -67l17 67l112 303zM297 714h149l-185 -164l-79 28z" />
    <glyph glyph-name="one.t" 
d="M87 0v96h123v365l-98 -30l-36 89l258 85v-509h123l-14 -96h-356z" />
    <glyph glyph-name="afii10023" unicode="&#x401;" 
d="M97 0v565l-14 103h383v-99h-239v-177h211l-25 -99h-186v-194h252l-25 -99h-357zM243 788c0 -34 -26 -61 -56 -61s-56 27 -56 61s26 62 56 62s56 -28 56 -62zM427 788c0 -34 -26 -61 -56 -61c-31 0 -56 27 -56 61s25 62 56 62c30 0 56 -28 56 -62z" />
    <glyph glyph-name="X.001" horiz-adv-x="536" 
d="M0 0l204 334l-137 247l-64 87h159l102 -188l15 -35l13 35l108 188h132l-194 -318l198 -350h-146l-109 203l-16 35l-14 -35l-113 -203h-138z" />
    <glyph glyph-name="afii10071" unicode="&#x451;" horiz-adv-x="499" 
d="M274 520c175 0 188 -187 190 -262l-24 -24h-277c5 -81 46 -145 125 -145c87 0 168 71 168 71l18 -102s-80 -71 -210 -71c-149 0 -228 124 -228 253c0 146 71 280 238 280zM262 435c-55 0 -83 -50 -94 -113h167c-3 48 -20 113 -73 113zM230 637c0 -34 -26 -61 -56 -61
s-56 27 -56 61s26 62 56 62s56 -28 56 -62zM414 637c0 -34 -26 -61 -56 -61c-31 0 -56 27 -56 61s25 62 56 62c30 0 56 -28 56 -62z" />
    <glyph glyph-name="afii61352" unicode="&#x2116;" horiz-adv-x="1050" 
d="M655 668v-582l7 -86h-83l-337 379l-39 63v-356l11 -86h-126v565l-14 103h100l328 -386l38 -62v345l-14 103h129zM1025 507c0 -89 -78 -163 -166 -163c-86 0 -163 74 -163 163s77 163 163 163c88 0 166 -74 166 -163zM716 232v80h289v-80h-289zM937 508
c0 41 -38 75 -77 75c-41 0 -76 -34 -76 -75c0 -38 32 -80 76 -80c49 0 77 42 77 80z" />
    <glyph glyph-name="afii10101" unicode="&#x454;" horiz-adv-x="489" 
d="M352 301v-94h-184c8 -67 49 -118 115 -118c87 0 164 80 164 80l18 -104s-75 -78 -206 -78c-149 0 -223 128 -223 257c0 166 87 276 248 276c123 0 183 -67 183 -67l-57 -90c-37 46 -86 62 -123 62c-73 0 -112 -46 -121 -124h186z" />
    <glyph glyph-name="afii10105" unicode="&#x458;" horiz-adv-x="278" 
d="M204 520v-503c0 -155 -86 -260 -201 -261l-43 103c93 0 120 71 120 169v376l-14 101zM69 653c0 39 32 70 70 70c36 0 67 -31 67 -70c0 -37 -31 -67 -67 -67c-38 0 -70 30 -70 67z" />
    <glyph glyph-name="afii10102" unicode="&#x455;" horiz-adv-x="427" 
d="M34 46l12 105s81 -70 159 -70c36 0 73 16 73 50c0 78 -243 80 -243 227c0 123 97 161 199 161c88 0 143 -33 143 -33l-23 -100s-50 45 -141 45c-34 0 -64 -20 -64 -47c0 -81 244 -72 244 -240c0 -102 -75 -157 -189 -157s-170 59 -170 59z" />
    <glyph glyph-name="afii10054" unicode="&#x405;" horiz-adv-x="490" 
d="M44 55l10 112s82 -83 187 -83c55 0 94 38 94 83c0 114 -284 120 -284 316c0 108 78 197 203 197c86 0 151 -28 186 -50l-25 -100s-66 55 -164 55c-37 0 -81 -30 -81 -76c0 -116 287 -115 287 -320c0 -114 -81 -202 -209 -202c-130 0 -204 68 -204 68z" />
    <glyph glyph-name="afii10104" unicode="&#x457;" horiz-adv-x="284" 
d="M204 520v-434l11 -86h-135v404l-14 101zM106 637c0 -34 -26 -61 -56 -61s-56 27 -56 61s26 62 56 62s56 -28 56 -62zM290 637c0 -34 -26 -61 -56 -61c-31 0 -56 27 -56 61s25 62 56 62c30 0 56 -28 56 -62z" />
    <glyph glyph-name="afii10053" unicode="&#x404;" horiz-adv-x="619" 
d="M449 392v-104h-277c16 -129 107 -199 205 -199c68 0 144 32 202 94l24 -103c-63 -58 -160 -93 -245 -93c-165 0 -324 112 -324 333c0 211 116 360 332 360c90 0 165 -26 229 -83l-53 -96c-56 57 -116 80 -175 80c-113 0 -183 -83 -192 -189h274z" />
    <glyph glyph-name="afii10057" unicode="&#x408;" horiz-adv-x="324" 
d="M231 668v-620c0 -128 -65 -247 -216 -247c-19 0 -44 3 -74 9l7 112s27 -15 67 -15c53 0 86 62 86 141v517l-14 103h144z" />
    <glyph glyph-name="afii10050" unicode="&#x490;" horiz-adv-x="485" 
d="M97 565l-14 103h277v68h106v-167h-239v-483l11 -86h-141v565z" />
    <glyph glyph-name="afii10098" unicode="&#x491;" horiz-adv-x="423" 
d="M67 505h226v77h110v-165h-201v-331l11 -86h-135v419z" />
    <glyph glyph-name="uni0406" unicode="&#x406;" horiz-adv-x="329" 
d="M228 668v-582l11 -86h-141v565l-14 103h144z" />
    <glyph glyph-name="afii10103" unicode="&#x456;" horiz-adv-x="284" 
d="M203 520v-434l11 -86h-135v404l-14 101zM69 653c0 39 32 70 70 70c36 0 67 -31 67 -70c0 -37 -31 -67 -67 -67c-38 0 -70 30 -70 67z" />
    <glyph glyph-name="afii10056" unicode="&#x407;" horiz-adv-x="329" 
d="M228 668v-582l11 -86h-141v565l-14 103h144zM129 788c0 -34 -26 -61 -56 -61s-56 27 -56 61s26 62 56 62s56 -28 56 -62zM313 788c0 -34 -26 -61 -56 -61c-31 0 -56 27 -56 61s25 62 56 62c30 0 56 -28 56 -62z" />
    <glyph glyph-name="afii10052" unicode="&#x403;" horiz-adv-x="485" 
d="M97 565l-14 103h383v-99h-239v-483l11 -86h-141v565zM286 864h149l-185 -164l-79 28z" />
    <glyph glyph-name="afii10100" unicode="&#x453;" horiz-adv-x="423" 
d="M67 505h336v-88h-201v-331l11 -86h-135v419zM266 694h149l-185 -164l-79 28z" />
    <glyph glyph-name="afii10061" unicode="&#x40c;" horiz-adv-x="612" 
d="M228 389h36l91 168c48 90 99 123 164 123c22 0 43 -5 59 -12l12 -106c-16 6 -27 8 -47 8c-26 0 -45 -18 -72 -66l-92 -164l228 -340h-156l-185 285h-38v-199l11 -86h-141v565l-14 103h144v-279zM361 864h149l-185 -164l-79 28z" />
    <glyph glyph-name="afii10109" unicode="&#x45c;" horiz-adv-x="548" 
d="M205 519v-220h25l67 116c46 80 100 105 161 105c17 0 40 -5 55 -12l13 -99c-14 6 -32 11 -51 11c-21 0 -44 -13 -69 -54l-64 -106l201 -260h-155l-152 211h-31v-125l11 -86h-135v403l-14 101zM326 724h149l-185 -164l-79 28z" />
    <glyph glyph-name="afii10062" unicode="&#x40e;" horiz-adv-x="629" 
d="M634 668l-229 -515c-48 -108 -111 -166 -214 -166c-21 0 -47 5 -73 17l-18 106c21 -11 54 -13 74 -13c44 0 77 18 99 61l-197 381l-86 129h164l168 -328l16 -54l14 54l143 328h139zM330 780c46 0 84 96 84 96l85 -29s-44 -157 -169 -157s-169 157 -169 157l85 29
s38 -96 84 -96z" />
    <glyph glyph-name="afii10110" unicode="&#x45e;" horiz-adv-x="516" 
d="M536 519l-247 -607c-44 -108 -117 -155 -198 -155c-20 0 -44 3 -72 14l-17 120s41 -17 74 -17c57 0 100 30 135 129l-139 403l-49 93l138 18l104 -320l11 -67l17 67l112 303zM290 637c47 0 70 87 70 87l90 -30s-33 -144 -160 -144s-160 144 -160 144l90 30s23 -87 70 -87
z" />
    <glyph glyph-name="afii10193" unicode="&#x45f;" horiz-adv-x="594" 
d="M237 0h-159v419l-11 86h135v-417h190v331l-11 86h135v-419l11 -86h-169v-150h-121v150z" />
    <glyph glyph-name="afii10145" unicode="&#x40f;" horiz-adv-x="765" 
d="M94 0v582l-11 86h141v-559h312v473l-11 86h141v-565l14 -103h-236v-163h-127v163h-223z" />
    <glyph glyph-name="afii10108" unicode="&#x45b;" horiz-adv-x="590" 
d="M371 544h-166v-136c44 40 104 60 159 60c76 0 151 -41 151 -128v-256l11 -84h-135v240c0 94 -10 124 -61 124c-76 0 -125 -55 -125 -55v-223l11 -86h-135v544h-59v86h59v14l-14 101l138 15v-130h166v-86z" />
    <glyph glyph-name="afii10099" unicode="&#x452;" horiz-adv-x="590" 
d="M515 340v-170c0 -150 -45 -210 -145 -210c-30 0 -60 14 -60 14l-17 120s29 -17 55 -17s43 8 43 93v70c0 94 -10 124 -61 124c-76 0 -125 -55 -125 -55v-223l11 -86h-135v544h-59v86h59v14l-14 101l138 15v-130h166v-86h-166v-136c44 40 104 60 159 60
c76 0 151 -41 151 -128z" />
    <glyph glyph-name="afii10060" unicode="&#x40b;" horiz-adv-x="694" 
d="M15 562v107h388v-107h-145v-156c34 11 95 27 171 27c123 0 211 -68 211 -222v-108l14 -103h-144v211c0 85 -40 120 -114 120c-63 0 -138 -30 -138 -30v-198l14 -103h-144v562h-113z" />
    <glyph glyph-name="afii10060.001" horiz-adv-x="670" 
d="M-49 562v107h388v-107h-145v-156c34 11 95 27 171 27c123 0 211 -68 211 -222v-108l14 -103h-144v211c0 85 -40 120 -114 120c-63 0 -138 -30 -138 -30v-198l14 -103h-144v562h-113z" />
    <glyph glyph-name="afii10051" unicode="&#x402;" horiz-adv-x="680" 
d="M510 170v41c0 85 -40 120 -114 120c-63 0 -138 -30 -138 -30v-198l14 -103h-144v562h-113v107h388v-107h-145v-156c34 11 95 27 171 27c123 0 211 -68 211 -222v-41c0 -150 -45 -210 -151 -210c-30 0 -60 14 -60 14l-17 120s29 -17 55 -17s43 8 43 93z" />
    <glyph glyph-name="afii10058" unicode="&#x409;" horiz-adv-x="914" 
d="M446 0v564h-160l-5 -104c-13 -265 -23 -473 -191 -473c-19 0 -49 3 -68 11l-12 107c16 -8 32 -10 45 -10c74 0 86 130 97 366l5 104l-14 103h434v-252h60c173 0 247 -89 247 -208s-74 -208 -247 -208h-191zM576 319v-222h62c73 0 114 41 114 114c0 65 -38 108 -139 108
h-37z" />
    <glyph glyph-name="afii10059" unicode="&#x40a;" horiz-adv-x="909" 
d="M441 0v301h-217v-215l11 -86h-141v565l-14 103h144v-258h217v155l-14 103h145v-258h60c173 0 247 -86 247 -205s-74 -205 -247 -205h-191zM571 313v-216h62c73 0 114 38 114 111c0 65 -38 105 -139 105h-37z" />
    <glyph glyph-name="afii10106" unicode="&#x459;" horiz-adv-x="783" 
d="M132 338l3 81l-11 86h376v-169h40c166 0 223 -73 223 -168s-57 -168 -223 -168h-164v413h-117l-2 -71c-5 -184 -42 -355 -170 -355c-22 0 -45 4 -65 12l-12 102c14 -7 29 -11 44 -11c47 0 72 88 78 248zM549 248h-51v-160h51c66 0 89 36 89 80s-23 80 -89 80z" />
    <glyph glyph-name="afii10107" unicode="&#x45a;" horiz-adv-x="792" 
d="M205 519v-203h180v87l-14 101l138 15v-203h40c166 0 223 -69 223 -158s-57 -158 -223 -158h-164v228h-180v-142l11 -86h-135v403l-14 101zM558 228h-51v-140h51c66 0 89 32 89 70s-23 70 -89 70z" />
    <glyph glyph-name="afii10017" unicode="&#x410;" horiz-adv-x="592" 
d="M-10 0l257 660l85 21l204 -557l56 -124h-145l-57 155h-221l-59 -155h-120zM273 451l-72 -193h160l-69 194l-9 39z" />
    <glyph glyph-name="afii10018" unicode="&#x411;" horiz-adv-x="571" 
d="M227 319v-222h62c73 0 114 41 114 114c0 65 -38 108 -139 108h-37zM97 0v565l-14 103h402v-99h-258v-153h61c173 0 247 -89 247 -208s-74 -208 -247 -208h-191z" />
    <glyph glyph-name="afii10019" unicode="&#x412;" horiz-adv-x="576" 
d="M227 575v-170c78 0 101 -5 114 -6c16 23 32 61 32 97c0 60 -32 81 -105 81c-12 0 -26 -1 -41 -2zM83 668l179 5c139 0 232 -49 232 -157c0 -55 -46 -110 -79 -140c78 -36 120 -94 120 -166c0 -121 -74 -210 -247 -210h-191v565zM227 309v-212h62c73 0 114 41 114 109
c0 60 -38 103 -139 103h-37z" />
    <glyph glyph-name="afii10020" unicode="&#x413;" horiz-adv-x="485" 
d="M97 565l-14 103h383v-99h-239v-483l11 -86h-141v565z" />
    <glyph glyph-name="afii10021" unicode="&#x414;" horiz-adv-x="686" 
d="M276 498c0 -148 -12 -277 -61 -394h234v460h-173v-66zM5 -163l2 267h68c60 116 71 243 71 394l1 67l-14 103h446v-564h75l2 -267h-128l-1 163h-393l-1 -163h-128z" />
    <glyph glyph-name="afii10022" unicode="&#x415;" 
d="M97 0v565l-14 103h383v-99h-239v-177h211l-25 -99h-186v-194h252l-25 -99h-357z" />
    <glyph glyph-name="afii10024" unicode="&#x416;" horiz-adv-x="868" 
d="M369 389v176l-14 103h144v-279h31l79 168c43 92 101 123 166 123c22 0 43 -5 59 -12l12 -106c-16 6 -27 8 -47 8c-26 0 -47 -17 -72 -66l-82 -164l218 -340h-155l-176 285h-33v-199l11 -86h-141v285h-33l-176 -285h-155l218 340l-82 164c-25 49 -46 66 -72 66
c-20 0 -31 -2 -47 -8l12 106c16 7 37 12 59 12c65 0 123 -31 166 -123l79 -168h31z" />
    <glyph glyph-name="afii10025" unicode="&#x417;" horiz-adv-x="505" 
d="M228 88c77 0 109 49 109 95c0 79 -45 109 -117 109h-92v99h96c26 0 50 -2 70 -6c20 25 32 57 32 106c0 53 -36 91 -96 91c-39 0 -99 -24 -155 -79l-53 96c64 55 139 81 209 81c122 0 221 -59 221 -189c0 -61 -38 -111 -86 -146c62 -32 106 -87 106 -162
c0 -112 -75 -196 -244 -196c-79 0 -149 28 -212 69l24 103c58 -44 129 -71 188 -71z" />
    <glyph glyph-name="afii10026" unicode="&#x418;" horiz-adv-x="771" 
d="M228 191l26 57l296 420h120v-582l11 -86h-141v477l-26 -57l-296 -420h-120v565l-14 103h144v-477z" />
    <glyph glyph-name="afii10027" unicode="&#x419;" horiz-adv-x="771" 
d="M228 191l26 57l296 420h120v-582l11 -86h-141v477l-26 -57l-296 -420h-120v565l-14 103h144v-477zM384 773c46 0 84 96 84 96l85 -29s-44 -157 -169 -157s-169 157 -169 157l85 29s38 -96 84 -96z" />
    <glyph glyph-name="afii10028" unicode="&#x41a;" horiz-adv-x="612" 
d="M228 389h36l91 168c48 90 99 123 164 123c22 0 43 -5 59 -12l12 -106c-16 6 -27 8 -47 8c-26 0 -45 -18 -72 -66l-92 -164l228 -340h-156l-185 285h-38v-199l11 -86h-141v565l-14 103h144v-279z" />
    <glyph glyph-name="afii10029" unicode="&#x41b;" horiz-adv-x="698" 
d="M286 564l-5 -104c-13 -265 -23 -473 -191 -473c-19 0 -49 3 -68 11l-12 107c16 -8 32 -10 45 -10c74 0 86 130 97 366l5 104l-14 103h453v-581c3 -25 9 -63 12 -87h-142v564h-180z" />
    <glyph glyph-name="afii10030" unicode="&#x41c;" horiz-adv-x="894" 
d="M445 62l-209 287l-33 65v-328l11 -86h-126v565l-14 103h103l279 -397l255 397h87v-582l11 -86h-141v413l-29 -64z" />
    <glyph glyph-name="afii10031" unicode="&#x41d;" horiz-adv-x="765" 
d="M669 668v-582l11 -86h-141v282h-312v-196l11 -86h-141v565l-14 103h144v-277h312v174l-14 103h144z" />
    <glyph glyph-name="afii10032" unicode="&#x41e;" horiz-adv-x="690" 
d="M351 678c206 0 309 -141 309 -339c0 -200 -140 -352 -322 -352c-196 0 -307 149 -307 340c0 199 138 351 320 351zM169 333c0 -143 71 -249 177 -249s176 106 176 249s-70 249 -176 249s-177 -106 -177 -249z" />
    <glyph glyph-name="afii10033" unicode="&#x41f;" horiz-adv-x="765" 
d="M669 668v-582l11 -86h-141v559h-312v-473l11 -86h-141v565l-14 103h586z" />
    <glyph glyph-name="afii10034" unicode="&#x420;" horiz-adv-x="556" 
d="M83 668h207c120 0 236 -66 236 -208c0 -119 -114 -224 -270 -224h-29v-150l11 -86h-141v565zM227 336h45c63 0 119 53 119 124c0 76 -56 111 -119 111h-45v-235z" />
    <glyph glyph-name="afii10035" unicode="&#x421;" horiz-adv-x="619" 
d="M595 597l-53 -96c-56 57 -116 80 -175 80c-113 0 -198 -117 -198 -251c0 -156 100 -241 208 -241c68 0 144 32 202 94l24 -103c-63 -58 -160 -93 -245 -93c-165 0 -324 112 -324 333c0 211 145 360 332 360c90 0 165 -26 229 -83z" />
    <glyph glyph-name="afii10036" unicode="&#x422;" horiz-adv-x="556" 
d="M0 567v101h556v-101h-216v-481l11 -86h-141v567h-210z" />
    <glyph glyph-name="afii10037" unicode="&#x423;" horiz-adv-x="629" 
d="M634 668l-229 -515c-48 -108 -111 -166 -214 -166c-21 0 -47 5 -73 17l-18 106c21 -11 54 -13 74 -13c44 0 77 18 99 61l-197 381l-86 129h164l168 -328l16 -54l14 54l143 328h139z" />
    <glyph glyph-name="afii10038" unicode="&#x424;" horiz-adv-x="726" 
d="M564 335c0 89 -50 159 -141 166v-333c91 7 141 77 141 167zM162 334c0 -89 50 -159 141 -166v333c-91 -7 -141 -77 -141 -167zM298 -10v85c-155 10 -273 115 -273 259c0 143 118 249 269 260l-11 84h145v-84c155 -10 273 -115 273 -259c0 -143 -118 -249 -272 -260
l10 -85h-141z" />
    <glyph glyph-name="afii10039" unicode="&#x425;" horiz-adv-x="536" 
d="M0 0l204 334l-137 247l-64 87h159l102 -188l15 -35l13 35l108 188h132l-194 -318l198 -350h-146l-109 203l-16 35l-14 -35l-113 -203h-138z" />
    <glyph glyph-name="afii10040" unicode="&#x426;" horiz-adv-x="738" 
d="M706 104l2 -267h-128l-1 163h-490v565l-14 103h144v-564h282v461l-14 103h144v-564h75z" />
    <glyph glyph-name="afii10041" unicode="&#x427;" horiz-adv-x="670" 
d="M275 223c-123 0 -211 68 -211 222v120l-14 103h144v-223c0 -85 40 -120 114 -120c63 0 138 30 138 30v210l-14 103h144v-565l14 -103h-144v250c-34 -11 -95 -27 -171 -27z" />
    <glyph glyph-name="afii10042" unicode="&#x428;" horiz-adv-x="980" 
d="M770 565l-14 103h144v-668h-812v565l-14 103h144v-564h211v461l-14 103h144v-564h211v461z" />
    <glyph glyph-name="afii10043" unicode="&#x429;" horiz-adv-x="1007" 
d="M848 0h-760v565l-14 103h144v-564h211v461l-14 103h144v-564h211v461l-14 103h144v-564h75l2 -267h-128z" />
    <glyph glyph-name="afii10044" unicode="&#x42a;" horiz-adv-x="625" 
d="M157 0v568h-157v100h288v-252h60c173 0 247 -89 247 -208s-74 -208 -247 -208h-191zM287 319v-222h62c73 0 114 41 114 114c0 65 -38 108 -139 108h-37z" />
    <glyph glyph-name="afii10045" unicode="&#x42b;" horiz-adv-x="851" 
d="M218 319v-222h62c73 0 114 41 114 114c0 65 -38 108 -139 108h-37zM88 0v565l-14 103h145v-252h60c173 0 247 -89 247 -208s-74 -208 -247 -208h-191zM760 668v-582l11 -86h-141v565l-34 103h164z" />
    <glyph glyph-name="afii10046" unicode="&#x42c;" horiz-adv-x="556" 
d="M218 319v-222h62c73 0 114 41 114 114c0 65 -38 108 -139 108h-37zM88 0v565l-14 103h145v-252h60c173 0 247 -89 247 -208s-74 -208 -247 -208h-191z" />
    <glyph glyph-name="afii10047" unicode="&#x42d;" horiz-adv-x="619" 
d="M170 288v104h274c-9 106 -79 189 -192 189c-59 0 -119 -23 -175 -80l-53 96c64 57 139 83 229 83c216 0 332 -149 332 -360c0 -221 -159 -333 -324 -333c-85 0 -182 35 -245 93l24 103c58 -62 134 -94 202 -94c98 0 189 70 205 199h-277z" />
    <glyph glyph-name="afii10048" unicode="&#x42e;" horiz-adv-x="928" 
d="M604 678c191 0 294 -141 294 -339c0 -200 -140 -352 -307 -352s-274 126 -290 295h-83v-196l11 -86h-141v565l-14 103h144v-277h86c26 166 151 287 300 287zM437 333c0 -143 66 -249 162 -249s161 106 161 249s-65 249 -161 249s-162 -106 -162 -249z" />
    <glyph glyph-name="afii10049" unicode="&#x42f;" horiz-adv-x="601" 
d="M513 668v-565l14 -103h-145v242h-60l-156 -242h-151l177 264c-81 34 -117 104 -117 191c0 125 74 213 247 213h191zM383 339v232h-62c-73 0 -114 -41 -114 -119c0 -70 38 -113 139 -113h37z" />
    <glyph glyph-name="afii10065" unicode="&#x430;" horiz-adv-x="523" 
d="M111 356l-51 88s74 76 209 76c83 0 171 -34 171 -138v-259c0 -60 51 -120 51 -120l-126 -14s-25 28 -34 62c-39 -39 -96 -64 -151 -64c-87 0 -146 64 -146 131c0 105 104 188 282 194v19c0 70 -26 100 -68 100c-79 0 -137 -75 -137 -75zM221 79c31 0 73 21 95 43v102
c-49 -4 -154 -15 -154 -90c0 -28 19 -55 59 -55z" />
    <glyph glyph-name="afii10066" unicode="&#x431;" horiz-adv-x="551" 
d="M278 368c-68 0 -114 -66 -114 -149c0 -75 43 -143 114 -143c62 0 108 63 108 146c0 78 -44 146 -108 146zM510 710l-17 -116c-265 -36 -335 -69 -355 -234c40 67 100 97 180 97c120 0 200 -92 200 -225c0 -139 -98 -245 -258 -245c-128 0 -227 92 -227 230v33
c0 330 85 395 385 435z" />
    <glyph glyph-name="afii10067" unicode="&#x432;" horiz-adv-x="515" 
d="M251 420l-55 -2v-109h115c15 13 29 31 29 58c0 34 -28 55 -89 53zM196 224v-136h75c65 0 91 28 91 67c0 47 -33 69 -103 69h-63zM67 503l189 5c136 4 199 -48 199 -126c0 -41 -26 -74 -70 -96c58 -23 100 -64 100 -127c0 -94 -54 -159 -223 -159h-184v417z" />
    <glyph glyph-name="afii10068" unicode="&#x433;" horiz-adv-x="423" 
d="M67 505h336v-88h-201v-331l11 -86h-135v419z" />
    <glyph glyph-name="afii10069" unicode="&#x434;" horiz-adv-x="587" 
d="M198 75h178v342h-128v-37c0 -99 -16 -224 -50 -305zM444 -13h-316v-150h-121v238h59c41 74 54 204 57 305l1 24l-13 101h389v-430h65v-238h-121v150z" />
    <glyph glyph-name="afii10070" unicode="&#x435;" horiz-adv-x="499" 
d="M274 520c175 0 188 -187 190 -262l-24 -24h-277c5 -81 46 -145 125 -145c87 0 168 71 168 71l18 -102s-80 -71 -210 -71c-149 0 -228 124 -228 253c0 146 71 280 238 280zM262 435c-55 0 -83 -50 -94 -113h167c-3 48 -20 113 -73 113z" />
    <glyph glyph-name="afii10072" unicode="&#x436;" horiz-adv-x="784" 
d="M330 299v120l-11 86h135v-206h20l59 116c42 83 100 105 161 105c17 0 40 -5 55 -12l13 -99c-14 6 -32 11 -51 11c-21 0 -47 -11 -69 -54l-55 -106l192 -260h-153l-147 211h-25v-125l11 -86h-135v211h-25l-147 -211h-153l192 260l-55 106c-22 43 -48 54 -69 54
c-19 0 -37 -5 -51 -11l13 99c15 7 38 12 55 12c61 0 119 -22 161 -105l59 -116h20z" />
    <glyph glyph-name="afii10073" unicode="&#x437;" horiz-adv-x="463" 
d="M224 430c-49 0 -100 -21 -140 -65l-57 88s65 67 197 67c116 0 193 -50 193 -137c0 -52 -24 -90 -66 -121c41 -20 82 -55 82 -118c0 -95 -68 -157 -222 -157c-97 0 -189 61 -189 61l18 102s97 -71 168 -71c73 0 101 34 101 67c0 47 -33 68 -87 68h-87v88h98
c12 0 26 0 35 -1c17 15 32 36 32 68c0 34 -32 61 -76 61z" />
    <glyph glyph-name="afii10074" unicode="&#x438;" horiz-adv-x="597" 
d="M205 519v-329l21 45l182 270h111v-419l11 -86h-135v315l-21 -45l-182 -270h-111v403l-14 101z" />
    <glyph glyph-name="afii10075" unicode="&#x439;" horiz-adv-x="597" 
d="M300 634c47 0 70 87 70 87l90 -30s-33 -144 -160 -144s-160 144 -160 144l90 30s23 -87 70 -87zM205 519v-329l21 45l182 270h111v-419l11 -86h-135v315l-21 -45l-182 -270h-111v403l-14 101z" />
    <glyph glyph-name="afii10076" unicode="&#x43a;" horiz-adv-x="548" 
d="M205 519v-220h25l67 116c46 80 100 105 161 105c17 0 40 -5 55 -12l13 -99c-14 6 -32 11 -51 11c-21 0 -44 -13 -69 -54l-64 -106l201 -260h-155l-152 211h-31v-125l11 -86h-135v403l-14 101z" />
    <glyph glyph-name="afii10077" unicode="&#x43b;" horiz-adv-x="594" 
d="M132 338l3 81l-11 86h392v-419l11 -86h-135v413h-133l-2 -71c-5 -184 -42 -355 -170 -355c-22 0 -45 4 -65 12l-12 102c14 -7 29 -11 44 -11c47 0 72 88 78 248z" />
    <glyph glyph-name="afii10078" unicode="&#x43c;" horiz-adv-x="729" 
d="M223 237l-26 52v-203l11 -86h-130v419l-11 86h93l211 -276l191 276h89v-419l11 -86h-135v287l-31 -59l-127 -181z" />
    <glyph glyph-name="afii10079" unicode="&#x43d;" horiz-adv-x="597" 
d="M205 519v-223h190v107l-14 101l138 15v-433l11 -86h-135v208h-190v-122l11 -86h-135v403l-14 101z" />
    <glyph glyph-name="afii10080" unicode="&#x43e;" horiz-adv-x="563" 
d="M529 264c0 -149 -97 -277 -264 -277c-152 0 -231 133 -231 259c0 149 95 274 265 274c131 0 230 -79 230 -256zM166 254c0 -100 43 -178 115 -178s115 78 115 178s-43 177 -115 177s-115 -77 -115 -177z" />
    <glyph glyph-name="afii10081" unicode="&#x43f;" horiz-adv-x="594" 
d="M67 505h449v-419l11 -86h-135v417h-190v-331l11 -86h-135v419z" />
    <glyph glyph-name="afii10082" unicode="&#x440;" horiz-adv-x="564" 
d="M81 -240v644l-14 101l138 15v-56c40 37 82 56 122 56c107 0 200 -90 200 -256c0 -149 -108 -277 -264 -277c-17 0 -38 2 -58 4v-145l11 -86h-135zM295 417c-56 0 -90 -42 -90 -42v-294s35 -4 74 -4c63 0 115 78 115 178c0 109 -45 162 -99 162z" />
    <glyph glyph-name="afii10083" unicode="&#x441;" horiz-adv-x="489" 
d="M467 453l-57 -90c-37 46 -86 62 -123 62c-86 0 -124 -82 -124 -172c0 -84 38 -164 120 -164c87 0 164 80 164 80l18 -104s-75 -78 -206 -78c-149 0 -223 128 -223 257c0 146 87 276 248 276c123 0 183 -67 183 -67z" />
    <glyph glyph-name="afii10084" unicode="&#x442;" horiz-adv-x="466" 
d="M10 505h446v-88h-161v-331l11 -86h-135v417h-161v88z" />
    <glyph glyph-name="afii10085" unicode="&#x443;" horiz-adv-x="516" 
d="M536 519l-247 -607c-44 -108 -117 -155 -198 -155c-20 0 -44 3 -72 14l-17 120s41 -17 74 -17c57 0 100 30 135 129l-139 403l-49 93l138 18l104 -320l11 -67l17 67l112 303z" />
    <glyph glyph-name="afii10086" unicode="&#x444;" horiz-adv-x="700" 
d="M408 431v-367c89 8 131 87 131 183c0 107 -42 177 -131 184zM292 63v367c-89 -8 -131 -87 -131 -183c0 -107 42 -177 131 -184zM288 513v131l-14 101l138 15v-246c163 -7 257 -95 257 -257c0 -139 -92 -265 -257 -276v-135l11 -86h-135v220c-163 7 -257 95 -257 257
c0 139 92 265 257 276z" />
    <glyph glyph-name="afii10087" unicode="&#x445;" horiz-adv-x="514" 
d="M0 0l187 252l-107 164l-73 85l144 18l94 -155l12 -27l14 27l96 137l147 18l-197 -257l173 -262h-142l-89 148l-14 26l-13 -27l-100 -147h-132z" />
    <glyph glyph-name="afii10088" unicode="&#x446;" horiz-adv-x="594" 
d="M572 90v-240h-121v150h-370v403l-14 101l138 15v-429h178v313l-14 101l138 15v-429h65z" />
    <glyph glyph-name="afii10089" unicode="&#x447;" horiz-adv-x="561" 
d="M483 519v-433l11 -86h-135v166c-26 -8 -68 -18 -127 -18c-106 0 -178 50 -178 187v68l-14 101l138 15v-184c0 -65 32 -86 78 -86c42 0 103 19 103 19v135l-14 101z" />
    <glyph glyph-name="afii10090" unicode="&#x448;" horiz-adv-x="816" 
d="M749 0h-668v403l-14 101l138 15v-429h148v313l-14 101l138 15v-429h148v313l-14 101l138 15v-519z" />
    <glyph glyph-name="afii10091" unicode="&#x449;" horiz-adv-x="836" 
d="M814 90v-240h-121v150h-612v403l-14 101l138 15v-429h148v313l-14 101l138 15v-429h148v313l-14 101l138 15v-429h65z" />
    <glyph glyph-name="afii10092" unicode="&#x44a;" horiz-adv-x="558" 
d="M265 505v-169h50c166 0 223 -73 223 -168s-57 -168 -223 -168h-174v413h-141v92h265zM324 248h-61v-160h61c66 0 89 36 89 80s-23 80 -89 80z" />
    <glyph glyph-name="afii10093" unicode="&#x44b;" horiz-adv-x="762" 
d="M264 248h-61v-160h61c66 0 89 36 89 80s-23 80 -89 80zM205 519v-183h50c166 0 223 -73 223 -168s-57 -168 -223 -168h-174v403l-14 101zM684 520v-434l11 -86h-135v404l-29 101z" />
    <glyph glyph-name="afii10094" unicode="&#x44c;" horiz-adv-x="498" 
d="M264 248h-61v-160h61c66 0 89 36 89 80s-23 80 -89 80zM205 519v-183h50c166 0 223 -73 223 -168s-57 -168 -223 -168h-174v403l-14 101z" />
    <glyph glyph-name="afii10095" unicode="&#x44d;" horiz-adv-x="489" 
d="M137 207v94h186c-9 78 -48 124 -121 124c-37 0 -86 -16 -123 -62l-57 90s60 67 183 67c161 0 248 -110 248 -276c0 -129 -74 -257 -223 -257c-131 0 -206 78 -206 78l18 104s77 -80 164 -80c66 0 107 51 115 118h-184z" />
    <glyph glyph-name="afii10096" unicode="&#x44e;" horiz-adv-x="779" 
d="M748 264c0 -149 -97 -277 -258 -277c-132 0 -209 107 -223 221h-65v-122l11 -86h-135v419l-11 86h135v-209h66c17 139 110 224 256 224c125 0 224 -94 224 -256zM397 254c0 -100 43 -178 109 -178s109 78 109 178s-43 177 -109 177c-67 0 -109 -77 -109 -177z" />
    <glyph glyph-name="afii10097" unicode="&#x44f;" horiz-adv-x="515" 
d="M313 0v169h-42l-121 -169h-150l146 189c-70 28 -96 83 -96 148c0 95 57 168 223 168h164v-419l11 -86h-135zM264 257h51v160h-51c-66 0 -89 -36 -89 -80s23 -80 89 -80z" />
    </font>
</defs>
</svg>
