<?xml version="1.0" standalone="no"?>
<!DOCTYPE svg PUBLIC "-//W3C//DTD SVG 1.1//EN" "http://www.w3.org/Graphics/SVG/1.1/DTD/svg11.dtd" >
<svg>
<metadata>
Created by FontForge 20090914 at Fri Feb 24 06:42:40 2012
 By root
Copyright (c) 2009 by Jos Buivenga. All rights reserved.
</metadata>
<defs>
<font id="FontinSansCR-SC" horiz-adv-x="500" >
  <font-face 
    font-family="Fontin Sans CR SC"
    font-weight="400"
    font-stretch="normal"
    units-per-em="1000"
    panose-1="2 0 0 0 0 0 0 0 0 0"
    ascent="756"
    descent="-244"
    x-height="531"
    cap-height="658"
    bbox="-54 -254 1275 879"
    underline-thickness="50"
    underline-position="-50"
    unicode-range="U+0020-U+FB04"
  />
<missing-glyph 
 />
    <glyph glyph-name="fi" unicode="fi" horiz-adv-x="697" 
d="M107 453l-13 78h313v-67h-215v-158h190l-21 -67h-169v-174l10 -65h-95v453zM620 531v-466l10 -65h-95v453l-13 78h98z" />
    <glyph glyph-name="fl" unicode="fl" horiz-adv-x="846" 
d="M107 453l-13 78h313v-67h-215v-158h190l-21 -67h-169v-174l10 -65h-95v453zM534 0v453l-13 78h98v-462h233l-20 -69h-298z" />
    <glyph glyph-name="ffi" unicode="ffi" horiz-adv-x="1120" 
d="M107 453l-13 78h313v-67h-215v-158h190l-21 -67h-169v-174l10 -65h-95v453zM530 453l-13 78h313v-67h-215v-158h190l-21 -67h-169v-174l10 -65h-95v453zM1043 531v-466l10 -65h-95v453l-13 78h98z" />
    <glyph glyph-name="ffl" unicode="ffl" horiz-adv-x="1269" 
d="M107 453l-13 78h313v-67h-215v-158h190l-21 -67h-169v-174l10 -65h-95v453zM530 453l-13 78h313v-67h-215v-158h190l-21 -67h-169v-174l10 -65h-95v453zM957 0v453l-13 78h98v-462h233l-20 -69h-298z" />
    <glyph glyph-name="fj" unicode="fj" horiz-adv-x="696" 
d="M107 453l-13 78h313v-67h-215v-158h190l-21 -67h-169v-174l10 -65h-95v453zM598 531v-497c0 -100 -54 -193 -178 -193c-15 0 -33 1 -51 5l5 79c16 -7 32 -11 46 -11c57 0 93 55 93 120v420l-12 77h97z" />
    <glyph glyph-name="ff" unicode="ff" horiz-adv-x="846" 
d="M107 453l-13 78h313v-67h-215v-158h190l-21 -67h-169v-174l10 -65h-95v453zM530 453l-13 78h313v-67h-215v-158h190l-21 -67h-169v-174l10 -65h-95v453z" />
    <glyph glyph-name=".notdef" 
 />
    <glyph glyph-name=".null" horiz-adv-x="0" 
 />
    <glyph glyph-name="CR" horiz-adv-x="260" 
 />
    <glyph glyph-name="space" unicode=" " horiz-adv-x="270" 
 />
    <glyph glyph-name="E" unicode="E" 
d="M112 0v566l-13 92h342v-74h-239v-210h209l-20 -74h-189v-226h250l-20 -74h-320z" />
    <glyph glyph-name="F" unicode="F" horiz-adv-x="481" 
d="M112 566l-13 92h342v-74h-239v-210h209l-20 -74h-189v-225l10 -75h-100v566z" />
    <glyph glyph-name="G" unicode="G" horiz-adv-x="658" 
d="M577 325l1 -300s-101 -38 -228 -38c-155 0 -305 114 -305 328c0 205 137 355 313 355c83 0 156 -28 215 -82l-46 -68c-47 49 -102 76 -168 76c-124 0 -218 -132 -218 -271c0 -162 113 -266 227 -266c54 0 122 17 122 17l1 175l-17 74h103z" />
    <glyph glyph-name="H" unicode="H" horiz-adv-x="755" 
d="M644 658v-583l10 -75h-100v300h-352v-225l10 -75h-100v566l-13 92h103v-278h352v186l-13 92h103z" />
    <glyph glyph-name="I" unicode="I" horiz-adv-x="312" 
d="M202 658v-583l10 -75h-100v566l-13 92h103z" />
    <glyph glyph-name="J" unicode="J" horiz-adv-x="297" 
d="M196 658v-620c0 -123 -59 -237 -196 -237c-16 0 -34 2 -54 6l5 88c17 -8 33 -13 49 -13c65 0 106 72 106 156v528l-13 92h103z" />
    <glyph glyph-name="K" unicode="K" horiz-adv-x="578" 
d="M572 0h-119l-251 333v-258l10 -75h-100v566l-13 92h103v-313l203 248l29 65h129l-260 -312z" />
    <glyph glyph-name="L" unicode="L" horiz-adv-x="466" 
d="M112 0v566l-13 92h103v-582h258l-20 -76h-328z" />
    <glyph glyph-name="M" unicode="M" horiz-adv-x="894" 
d="M453 74l-232 319l-33 66v-384l10 -75h-92v566l-13 92h66l298 -425l270 425h56v-583l10 -75h-100v463l-35 -70z" />
    <glyph glyph-name="N" unicode="N" horiz-adv-x="748" 
d="M647 658v-583l6 -75h-47l-375 420l-43 65v-410l10 -75h-92v566l-13 92h61l367 -416l44 -65v389l-13 92h95z" />
    <glyph glyph-name="O" unicode="O" horiz-adv-x="680" 
d="M346 670c193 0 289 -143 289 -335c0 -194 -131 -348 -302 -348c-183 0 -287 151 -287 336c0 193 129 347 300 347zM144 329c0 -149 79 -270 197 -270s196 121 196 270s-78 270 -196 270s-197 -121 -197 -270z" />
    <glyph glyph-name="P" unicode="P" horiz-adv-x="546" 
d="M99 658h186c110 0 216 -63 216 -198c0 -114 -106 -214 -250 -214h-49v-171l10 -75h-100v566zM202 320h65c74 0 139 54 139 140c0 82 -65 124 -139 124h-65v-264z" />
    <glyph glyph-name="Q" unicode="Q" horiz-adv-x="680" 
d="M346 670c193 0 289 -143 289 -335c0 -180 -113 -325 -265 -345l222 -94l-38 -84l-240 114v63c-171 10 -268 155 -268 334c0 193 129 347 300 347zM144 329c0 -149 79 -270 197 -270s196 121 196 270s-78 270 -196 270s-197 -121 -197 -270z" />
    <glyph glyph-name="R" unicode="R" horiz-adv-x="588" 
d="M578 0h-116l-176 247c-11 -1 -25 -1 -84 -1v-171l10 -75h-100v566l-13 92h186c110 0 216 -63 216 -198c0 -78 -49 -151 -128 -188zM202 320h65c74 0 139 64 139 140c0 82 -65 124 -139 124h-65v-264z" />
    <glyph glyph-name="S" unicode="S" horiz-adv-x="480" 
d="M54 61c1 1 10 86 10 86s73 -88 172 -88c57 0 107 39 107 109c0 132 -287 137 -287 314c0 103 80 188 193 188c79 0 135 -28 165 -47l-26 -73c-2 5 -66 49 -142 49c-47 0 -96 -32 -96 -90c0 -144 282 -132 282 -328c0 -113 -77 -194 -199 -194c-118 0 -179 74 -179 74z
" />
    <glyph glyph-name="T" unicode="T" horiz-adv-x="526" 
d="M5 582v76h516v-76h-216v-507l10 -75h-100v582h-210z" />
    <glyph glyph-name="U" unicode="U" horiz-adv-x="727" 
d="M537 252v314l-13 92h97v-395c0 -162 -106 -276 -270 -276c-236 0 -242 234 -242 250v329l-13 92h103v-413c0 -106 72 -185 170 -185c99 0 168 86 168 192z" />
    <glyph glyph-name="V" unicode="V" horiz-adv-x="584" 
d="M583 658l-259 -671l-63 13l-199 548l-58 110h120l157 -440l21 -84l26 84l166 440h89z" />
    <glyph glyph-name="W" unicode="W" horiz-adv-x="924" 
d="M924 658l-259 -671l-62 13l-119 326l-18 62l-17 -63l-130 -338l-56 13l-199 548l-58 110h118l157 -440l21 -84l26 84l100 263l-67 177h103l157 -440l21 -84l26 84l166 440h90z" />
    <glyph glyph-name="X" unicode="X" horiz-adv-x="497" 
d="M9 0l195 334l-141 253l-52 71h117l117 -209l15 -31l13 31l119 209h94l-187 -316l192 -342h-107l-124 225l-15 33l-16 -35l-125 -223h-95z" />
    <glyph glyph-name="Y" unicode="Y" horiz-adv-x="509" 
d="M303 290v-215l10 -75h-100v290l-155 297l-52 71h116l130 -247l14 -40l19 42l131 245h90z" />
    <glyph glyph-name="Z" unicode="Z" horiz-adv-x="566" 
d="M36 0l-4 25l313 496l44 60h-335l22 77h446l4 -25l-312 -495l-46 -62h369v-76h-501z" />
    <glyph glyph-name="bracketleft" unicode="[" horiz-adv-x="257" 
d="M239 724v-62h-81v-668h81v-63h-161v793h161z" />
    <glyph glyph-name="backslash" unicode="\" horiz-adv-x="356" 
d="M288 -244l-283 901h76l275 -901h-68z" />
    <glyph glyph-name="bracketright" unicode="]" horiz-adv-x="257" 
d="M18 662v62h161v-793h-161v63h81v668h-81z" />
    <glyph glyph-name="asciicircum" unicode="^" horiz-adv-x="624" 
d="M551 320h-70l-170 307l-170 -307h-70l212 388h56s198 -364 212 -388z" />
    <glyph glyph-name="underscore" unicode="_" horiz-adv-x="450" 
d="M478 -75l-30 -60h-446v60h476z" />
    <glyph glyph-name="grave" unicode="`" horiz-adv-x="338" 
d="M36 724h110l124 -143l-55 -20z" />
    <glyph glyph-name="a" unicode="a" horiz-adv-x="516" 
d="M-2 0l232 531l51 11l183 -448l48 -94h-100l-57 138h-218l-59 -138h-80zM239 379l-75 -173h165l-70 173l-9 30z" />
    <glyph glyph-name="b" unicode="b" horiz-adv-x="523" 
d="M197 467v-147h63c27 0 65 -5 65 -5c15 17 32 44 32 77c0 53 -37 77 -124 77c-11 0 -23 -1 -36 -2zM99 531c149 4 158 4 158 4c107 0 182 -45 182 -127c0 -43 -38 -85 -63 -108c57 -24 97 -56 97 -132c0 -87 -59 -168 -223 -168h-138v453zM197 253v-187h63
c95 0 124 48 124 95c0 70 -47 92 -138 92h-49z" />
    <glyph glyph-name="c" unicode="c" horiz-adv-x="569" 
d="M527 472l-46 -59c-42 39 -92 61 -151 61c-115 0 -194 -104 -194 -213c0 -127 101 -203 200 -203c83 0 176 65 176 65l22 -65s-90 -71 -212 -71c-141 0 -277 92 -277 266c0 166 129 288 289 288c74 0 137 -23 193 -69z" />
    <glyph glyph-name="d" unicode="d" horiz-adv-x="621" 
d="M99 531h227c126 0 250 -80 250 -262c0 -151 -108 -269 -277 -269h-187v453zM310 466h-113v-400h113c102 0 174 89 174 199s-72 201 -174 201z" />
    <glyph glyph-name="e" unicode="e" horiz-adv-x="472" 
d="M112 0v453l-13 78h313v-67h-215v-158h190l-21 -67h-169v-172h227l-21 -67h-291z" />
    <glyph glyph-name="f" unicode="f" horiz-adv-x="452" 
d="M112 453l-13 78h313v-67h-215v-158h190l-21 -67h-169v-174l10 -65h-95v453z" />
    <glyph glyph-name="g" unicode="g" horiz-adv-x="609" 
d="M528 265l1 -248s-91 -30 -207 -30c-141 0 -277 92 -277 266c0 166 125 288 284 288c75 0 142 -23 198 -69l-46 -59c-42 39 -92 61 -151 61c-111 0 -194 -104 -194 -213c0 -128 101 -209 202 -209c46 0 108 13 108 13c0 45 1 91 1 136l-16 64h97z" />
    <glyph glyph-name="h" unicode="h" horiz-adv-x="706" 
d="M595 531v-466l10 -65h-95v238h-313v-173l10 -65h-95v453l-13 78h98v-221h313v143l-13 78h98z" />
    <glyph glyph-name="i" unicode="i" horiz-adv-x="307" 
d="M197 531v-466l10 -65h-95v453l-13 78h98z" />
    <glyph glyph-name="j" unicode="j" horiz-adv-x="276" 
d="M175 531v-497c0 -100 -54 -193 -178 -193c-15 0 -33 1 -51 5l5 79c16 -7 32 -11 46 -11c57 0 93 55 93 120v420l-12 77h97z" />
    <glyph glyph-name="k" unicode="k" horiz-adv-x="542" 
d="M536 0h-116l-223 262v-197l10 -65h-95v453l-13 78h98v-245l175 192l-1 -1l28 54h125l-234 -250z" />
    <glyph glyph-name="l" unicode="l" horiz-adv-x="436" 
d="M112 0v453l-13 78h98v-462h233l-20 -69h-298z" />
    <glyph glyph-name="m" unicode="m" horiz-adv-x="828" 
d="M418 55l-209 254l-28 51v-295l10 -65h-86v454l-12 77l58 -2l271 -342l241 344h54v-466l10 -65h-95v361l-28 -48z" />
    <glyph glyph-name="n" unicode="n" horiz-adv-x="693" 
d="M592 531v-467l6 -64h-48l-334 335l-35 47v-317l10 -65h-86v454l-12 77h56l332 -334l35 -47v304l-12 77h88z" />
    <glyph glyph-name="o" unicode="o" horiz-adv-x="625" 
d="M318 541c175 0 262 -116 262 -272c0 -157 -118 -282 -273 -282c-166 0 -261 122 -261 272c0 157 117 282 272 282zM139 264c0 -117 70 -212 175 -212s174 95 174 212s-69 212 -174 212s-175 -95 -175 -212z" />
    <glyph glyph-name="p" unicode="p" horiz-adv-x="511" 
d="M99 531h170c100 0 197 -51 197 -162c0 -93 -97 -175 -227 -175h-42v-129l10 -65h-95v453zM197 261h56c66 0 123 41 123 108c0 63 -57 95 -123 95h-56v-203z" />
    <glyph glyph-name="q" unicode="q" horiz-adv-x="625" 
d="M318 541c175 0 262 -116 262 -272c0 -140 -95 -254 -224 -278l188 -70l-37 -75l-219 92v50c-154 9 -242 126 -242 271c0 157 117 282 272 282zM139 264c0 -117 70 -212 175 -212s174 95 174 212s-69 212 -174 212s-175 -95 -175 -212z" />
    <glyph glyph-name="r" unicode="r" horiz-adv-x="551" 
d="M541 0h-111l-158 195l-75 -1v-129l10 -65h-95v453l-13 78h170c100 0 197 -51 197 -162c0 -61 -44 -121 -110 -152zM197 261h56c66 0 123 49 123 108c0 63 -57 95 -123 95h-56v-203z" />
    <glyph glyph-name="s" unicode="s" horiz-adv-x="446" 
d="M55 47l-1 3c0 -1 10 77 10 77s67 -72 155 -72c51 0 92 27 92 80c0 101 -256 106 -256 252c0 84 73 154 176 154c70 0 123 -23 152 -40l-27 -70c-2 4 -60 42 -128 42c-41 0 -84 -21 -84 -65c0 -111 254 -97 254 -262c0 -96 -71 -159 -181 -159c-107 0 -162 60 -162 60z
" />
    <glyph glyph-name="t" unicode="t" horiz-adv-x="479" 
d="M5 463v68h469v-68h-195v-398l10 -65h-95v463h-189z" />
    <glyph glyph-name="u" unicode="u" horiz-adv-x="680" 
d="M494 203v251l-12 77h92v-320c0 -131 -97 -224 -245 -224c-215 0 -220 191 -220 204v262l-13 78h98v-334c0 -83 64 -144 151 -144c88 0 149 67 149 150z" />
    <glyph glyph-name="v" unicode="v" horiz-adv-x="533" 
d="M532 531l-237 -544l-55 10l-180 441v-1l-56 94h113l142 -355l17 -59l22 63l150 351h84z" />
    <glyph glyph-name="w" unicode="w" horiz-adv-x="842" 
d="M842 531l-238 -544l-55 10l-108 264l-15 42l-14 -47l-117 -269l-52 10l-180 441v-1l-57 94h114l142 -355l17 -59l22 63l88 206l-62 145h99l142 -355l17 -59l22 63l150 351h85z" />
    <glyph glyph-name="x" unicode="x" horiz-adv-x="461" 
d="M9 0l179 270l-126 199v-1l-53 63h114l106 -167l12 -21l10 21l108 167h91l-171 -254l176 -277h-103l-113 181l-12 22l-12 -24l-113 -179h-93z" />
    <glyph glyph-name="y" unicode="y" horiz-adv-x="473" 
d="M284 232v-167l10 -65h-95v232l-140 237v-1l-53 63h114l117 -196l11 -30l15 29l119 197h88z" />
    <glyph glyph-name="z" unicode="z" horiz-adv-x="519" 
d="M35 0l-3 25l281 395l35 42h-298l22 69h404l4 -25l-283 -398l-32 -39h325v-69h-455z" />
    <glyph glyph-name="braceleft" unicode="{" horiz-adv-x="274" 
d="M17 273v52c73 0 78 65 78 80v201c0 102 71 149 161 149v-62c-33 0 -81 -10 -81 -90v-197c0 -65 -46 -107 -46 -107s46 -42 46 -107v-282c0 -80 48 -90 81 -90v-62c-90 0 -161 47 -161 149v286c0 15 -5 80 -78 80z" />
    <glyph glyph-name="bar" unicode="|" horiz-adv-x="227" 
d="M149 756v-1010h-71v1010h71z" />
    <glyph glyph-name="braceright" unicode="}" horiz-adv-x="274" 
d="M257 325v-52c-73 0 -78 -65 -78 -80v-286c0 -102 -71 -149 -161 -149v62c33 0 81 10 81 90v282c0 65 46 107 46 107s-46 42 -46 107v197c0 80 -48 90 -81 90v62c90 0 161 -47 161 -149v-201c0 -15 5 -80 78 -80z" />
    <glyph glyph-name="A" unicode="A" horiz-adv-x="571" 
d="M-2 0l254 658l61 13l204 -561l50 -110h-109l-63 172h-245l-65 -172h-87zM265 477l-88 -229h193l-83 230l-10 39z" />
    <glyph glyph-name="D" unicode="D" horiz-adv-x="668" 
d="M348 658c139 0 275 -102 275 -325c0 -187 -119 -333 -305 -333h-206v566l-13 92h249zM330 586h-128v-514h128c114 0 196 116 196 255c0 141 -82 259 -196 259z" />
    <glyph glyph-name="onehalf" unicode="&#xbd;" horiz-adv-x="710" 
d="M663 -58h-245l-6 31c27 28 155 165 155 246c0 42 -23 53 -48 53c-23 0 -52 -10 -77 -39l-29 56c28 24 70 39 115 39c61 0 121 -35 121 -101c0 -96 -134 -221 -141 -227h161zM568 571l-330 -477h-63l342 497zM48 286v46h79v265l-64 -20l-18 45l158 51v-341h78l-6 -46h-227
z" />
    <glyph glyph-name="onequarter" unicode="&#xbc;" horiz-adv-x="688" 
d="M48 286v46h79v265l-64 -20l-18 45l158 51v-341h78l-6 -46h-227zM579 571l-330 -477h-63l342 497zM356 71l174 262l65 -20v-223h70l-13 -54h-57v-44l6 -50h-80v94h-158zM522 90v118l2 36l-16 -33l-73 -108l-14 -14l28 1h73z" />
    <glyph glyph-name="onesuperior" unicode="&#xb9;" horiz-adv-x="300" 
d="M48 286v46h79v265l-64 -20l-18 45l158 51v-341h78l-6 -46h-227z" />
    <glyph glyph-name="threequarters" unicode="&#xbe;" horiz-adv-x="676" 
d="M567 571l-330 -477h-63l342 497zM344 71l174 262l65 -20v-223h70l-13 -54h-57v-44l6 -50h-80v94h-158zM510 90v118l2 36l-16 -33l-73 -108l-14 -14l28 1h73zM285 586c0 -38 -29 -76 -75 -90c43 -7 90 -36 90 -102c0 -85 -88 -114 -173 -114c-23 0 -46 4 -67 6l-15 58
c10 -2 35 -8 63 -8c55 0 111 10 111 58c0 47 -58 67 -97 67l8 40c38 16 76 40 76 76c0 32 -20 40 -44 40c-49 0 -82 -33 -82 -33l-27 51c26 21 69 37 112 37c61 0 120 -30 120 -86z" />
    <glyph glyph-name="threesuperior" unicode="&#xb3;" horiz-adv-x="349" 
d="M285 586c0 -38 -29 -76 -75 -90c43 -7 90 -36 90 -102c0 -85 -88 -114 -173 -114c-23 0 -46 4 -67 6l-15 58c10 -2 35 -8 63 -8c55 0 111 10 111 58c0 47 -58 67 -97 67l8 40c38 16 76 40 76 76c0 32 -20 40 -44 40c-49 0 -82 -33 -82 -33l-27 51c26 21 69 37 112 37
c61 0 120 -30 120 -86z" />
    <glyph glyph-name="twosuperior" unicode="&#xb2;" horiz-adv-x="349" 
d="M302 286h-245l-6 31c10 11 157 147 157 233c0 42 -25 63 -50 63c-23 0 -52 -7 -77 -36l-29 56c28 24 70 39 115 39c61 0 121 -34 121 -110c0 -96 -134 -212 -141 -218h161z" />
    <glyph glyph-name="Eth" unicode="&#xd0;" horiz-adv-x="679" 
d="M40 374h83v192l-13 92h249c139 0 275 -102 275 -325c0 -187 -119 -333 -305 -333h-206v300h-83v74zM341 595h-128v-221h134l-20 -74h-114v-233h128c114 0 196 121 196 260c0 141 -82 268 -196 268z" />
    <glyph glyph-name="eth" unicode="&#xf0;" horiz-adv-x="603" 
d="M24 301h74v150l-13 75h222c124 0 245 -81 245 -260c0 -149 -105 -266 -271 -266h-183v237h-74v64zM291 465h-113v-164h119l-19 -64h-100v-173h113c102 0 174 89 174 198c0 108 -72 203 -174 203z" />
    <glyph glyph-name="Lslash" unicode="&#x141;" horiz-adv-x="468" 
d="M18 265l92 52v249l-13 92h103v-288l132 75l14 -76l-146 -84v-211h262l-20 -74h-332v231l-59 -33z" />
    <glyph glyph-name="lslash" unicode="&#x142;" horiz-adv-x="423" 
d="M22 214l84 43v194l-13 75h93v-228l117 60l13 -67l-130 -66v-156h234l-20 -69h-294v183l-52 -27z" />
    <glyph glyph-name="Scaron" unicode="&#x160;" horiz-adv-x="480" 
d="M54 61c1 1 10 86 10 86s73 -88 172 -88c57 0 107 39 107 109c0 132 -287 137 -287 314c0 103 80 188 193 188c79 0 135 -28 165 -47l-26 -73c-2 5 -66 49 -142 49c-47 0 -96 -32 -96 -90c0 -144 282 -132 282 -328c0 -113 -77 -194 -199 -194c-118 0 -179 74 -179 74z
M278 712h-66l-124 143l55 20l102 -93l102 93l55 -20z" />
    <glyph glyph-name="scaron" unicode="&#x161;" horiz-adv-x="414" 
d="M55 47l-1 3c0 -1 10 77 10 77s67 -72 155 -72c51 0 92 27 92 80c0 101 -256 106 -256 252c0 84 73 154 176 154c70 0 123 -23 152 -40l-27 -70c-2 4 -60 42 -128 42c-41 0 -84 -21 -84 -65c0 -111 254 -97 254 -262c0 -96 -71 -159 -181 -159c-107 0 -162 60 -162 60z
M247 582h-66l-124 143l55 20l102 -93l102 93l55 -20z" />
    <glyph glyph-name="Yacute" unicode="&#xdd;" horiz-adv-x="509" 
d="M303 290v-215l10 -75h-100v290l-155 297l-52 71h116l130 -247l14 -40l19 42l131 245h90zM316 875h110l-179 -163l-55 20z" />
    <glyph glyph-name="yacute" unicode="&#xfd;" horiz-adv-x="470" 
d="M284 232v-167l10 -65h-95v232l-140 237v-1l-53 63h114l117 -196l11 -30l15 29l119 197h88zM292 745h110l-179 -163l-55 20z" />
    <glyph glyph-name="Thorn" unicode="&#xde;" horiz-adv-x="546" 
d="M99 746l103 10v-158h83c110 0 216 -63 216 -198c0 -114 -106 -214 -250 -214h-49v-111l10 -75h-100v634zM202 252h65c74 0 139 72 139 148c0 82 -65 135 -139 135h-65v-283z" />
    <glyph glyph-name="thorn" unicode="&#xfe;" horiz-adv-x="467" 
d="M72 536l92 8l5 -101h88c98 0 183 -50 183 -159c0 -92 -85 -174 -213 -174h-58v-48l9 -62h-94v449zM169 170h72c66 0 109 56 109 114c0 63 -43 103 -109 103h-72v-217z" />
    <glyph glyph-name="Zcaron" unicode="&#x17d;" horiz-adv-x="566" 
d="M36 0l-4 25l313 496l44 60h-335l22 77h446l4 -25l-312 -495l-46 -62h369v-76h-501zM322 712h-66l-124 143l55 20l102 -93l102 93l55 -20z" />
    <glyph glyph-name="zcaron" unicode="&#x17e;" horiz-adv-x="485" 
d="M24 0l-3 25l281 395l35 42h-298l22 69h404l4 -25l-283 -398l-32 -39h325v-69h-455zM270 583h-66l-124 143l55 20l102 -93l102 93l55 -20z" />
    <glyph glyph-name="multiply" unicode="&#xd7;" horiz-adv-x="429" 
d="M342 87l-125 124l-122 -122l-52 52l122 123l-127 126l63 36l114 -113l126 127l38 -67l-112 -112l124 -125z" />
    <glyph glyph-name="exclam" unicode="!" horiz-adv-x="264" 
d="M183 605l-13 -428l-63 -8l-12 353l-12 72zM201 50c0 -35 -29 -63 -64 -63s-64 28 -64 63c0 33 29 61 64 61s64 -28 64 -61z" />
    <glyph glyph-name="quotedbl" unicode="&#x22;" horiz-adv-x="392" 
d="M89 543l-18 112l90 16l-1 -244l-73 -1zM249 543l-18 112l90 16l-1 -244l-73 -1z" />
    <glyph glyph-name="numbersign" unicode="#" horiz-adv-x="704" 
d="M622 184h-148l-19 -184h-77l19 184h-146l-19 -184h-77l19 184h-145v64h152l20 186h-144v64h151l17 160h76l-17 -160h146l17 160h77l-17 -160h150l-8 -64h-148l-20 -186h149zM404 248l20 186h-146l-20 -186h146z" />
    <glyph glyph-name="dollar" unicode="$" horiz-adv-x="480" 
d="M271 755v-86c67 -4 116 -29 143 -46l-26 -78c-2 4 -53 40 -117 48v-215c77 -41 164 -85 164 -197c0 -105 -64 -177 -164 -191v-84h-52v82c-109 5 -165 71 -164 72l9 82s65 -73 155 -82v236c-78 43 -163 88 -163 186c0 93 66 172 163 186v87h52zM340 168
c0 42 -30 71 -69 97v-201c40 13 69 49 69 104zM150 509c0 -47 29 -77 69 -102v185c-37 -9 -69 -36 -69 -83z" />
    <glyph glyph-name="percent" unicode="%" horiz-adv-x="798" 
d="M369 507c0 -82 -72 -150 -153 -150c-79 0 -150 68 -150 150s71 150 150 150c81 0 153 -68 153 -150zM310 509c0 49 -46 90 -93 90c-50 0 -92 -41 -92 -90c0 -46 39 -97 92 -97c59 0 93 51 93 97zM744 137c0 -82 -72 -150 -153 -150c-79 0 -150 68 -150 150
s71 150 150 150c81 0 153 -68 153 -150zM685 139c0 49 -46 90 -93 90c-50 0 -92 -41 -92 -90c0 -46 39 -97 92 -97c59 0 93 51 93 97zM661 647l-441 -647h-81l456 674z" />
    <glyph glyph-name="ampersand" unicode="&#x26;" horiz-adv-x="696" 
d="M616 -18h-2c-46 15 -98 43 -153 80c-50 -45 -122 -72 -205 -72c-105 0 -189 56 -189 155c0 69 58 121 124 168c-44 58 -74 116 -74 157c0 82 65 134 171 134c93 0 149 -46 149 -112c0 -73 -74 -128 -147 -179l-2 -2c45 -54 106 -112 163 -157c23 43 35 90 35 149v91h183
l-18 -62h-96v-22c0 -68 -18 -141 -51 -194c62 -45 121 -75 167 -85zM285 52c43 0 87 16 122 49c-64 48 -132 115 -180 170c-47 -36 -76 -67 -76 -109c0 -52 33 -110 134 -110zM196 481c0 -34 22 -77 57 -125c58 40 107 82 107 122c0 28 -24 67 -82 67c-48 0 -82 -23 -82 -64
z" />
    <glyph glyph-name="quotesingle" unicode="'" horiz-adv-x="232" 
d="M89 543l-18 112l90 16l-1 -244l-73 -1z" />
    <glyph glyph-name="parenleft" unicode="(" horiz-adv-x="330" 
d="M151 237c0 -267 129 -441 151 -451l-59 -21c-100 56 -177 289 -177 472c0 184 77 386 177 442l59 -21c-22 -10 -151 -154 -151 -421z" />
    <glyph glyph-name="parenright" unicode=")" horiz-adv-x="330" 
d="M179 237c0 267 -129 411 -151 421l59 21c100 -56 177 -258 177 -442c0 -183 -77 -416 -177 -472l-59 21c22 10 151 184 151 451z" />
    <glyph glyph-name="asterisk" unicode="*" horiz-adv-x="402" 
d="M4 549l30 62l116 -4l-74 128l64 5l59 -104l72 127l36 -54l-60 -102l147 4l-30 -62l-116 4l74 -128l-64 -5l-59 103l-72 -126l-36 54l59 102z" />
    <glyph glyph-name="plus" unicode="+" horiz-adv-x="471" 
d="M201 80v146h-143v74h143v149l70 -19v-130h149l-20 -74h-129v-146h-70z" />
    <glyph glyph-name="comma" unicode="," horiz-adv-x="270" 
d="M96 -141l-36 35c23 22 56 67 56 100c0 26 -9 36 -36 47v9c0 35 24 63 60 63c31 0 60 -23 60 -72c0 -50 -31 -134 -104 -182z" />
    <glyph glyph-name="hyphen" unicode="-" horiz-adv-x="302" 
d="M31 299h247l-20 -74h-227v74z" />
    <glyph glyph-name="period" unicode="." horiz-adv-x="270" 
d="M195 50c0 -35 -27 -63 -60 -63s-60 28 -60 63c0 33 27 61 60 61s60 -28 60 -61z" />
    <glyph glyph-name="slash" unicode="/" horiz-adv-x="291" 
d="M260 657l-216 -901h-71l213 901h74z" />
    <glyph glyph-name="zero" unicode="0" 
d="M256 669c191 0 203 -205 203 -341c0 -163 -40 -341 -225 -341c-126 0 -192 126 -192 342c0 166 44 340 214 340zM250 603c-90 0 -116 -126 -116 -263c0 -142 13 -289 111 -289c86 0 124 131 124 273c0 140 -22 279 -119 279z" />
    <glyph glyph-name="one" unicode="1" 
d="M108 0v66h111v506l-104 -32l-25 61l215 71v-606h114l-10 -66h-301z" />
    <glyph glyph-name="two" unicode="2" 
d="M441 0h-379l-10 44c93 107 277 273 277 432c0 89 -41 121 -93 121c-46 0 -99 -25 -138 -64l-36 70c43 35 112 66 184 66c108 0 180 -64 180 -174c0 -156 -143 -310 -255 -417h280z" />
    <glyph glyph-name="three" unicode="3" 
d="M402 537c0 -61 -41 -110 -113 -145c102 -13 151 -92 151 -180c0 -131 -102 -225 -234 -225c-49 0 -102 11 -146 31l19 72c31 -18 79 -32 123 -32c68 0 146 40 146 143c0 76 -61 139 -163 142l13 59c58 27 116 68 116 122c0 45 -38 80 -87 80c-41 0 -86 -21 -116 -55
l-35 67c36 29 98 53 159 53c89 0 167 -45 167 -132z" />
    <glyph glyph-name="four" unicode="4" 
d="M35 219l274 451l75 -22v-405h98l-20 -78h-78v-90l10 -75h-94v165h-255zM302 243v252l5 58l-28 -63l-130 -222l-18 -25h171z" />
    <glyph glyph-name="five" unicode="5" 
d="M429 227c0 -151 -107 -240 -230 -240c-45 0 -102 10 -149 31l19 72c33 -19 84 -32 125 -32c71 0 144 51 144 163c0 110 -76 163 -192 163c-21 0 -36 -2 -36 -2l12 276h299l-20 -78h-209l-5 -131c119 0 242 -66 242 -222z" />
    <glyph glyph-name="six" unicode="6" 
d="M285 421c91 0 176 -62 176 -193c0 -129 -75 -241 -211 -241c-149 0 -210 155 -210 315c0 256 118 367 266 367c48 0 111 -17 144 -57l-35 -68c-20 31 -67 56 -114 56c-82 0 -155 -71 -169 -227c22 14 84 48 153 48zM267 58c70 0 103 74 103 142c0 103 -57 150 -127 150
c-51 0 -98 -31 -113 -43c1 -121 32 -249 137 -249z" />
    <glyph glyph-name="seven" unicode="7" 
d="M180 -9l-81 15l249 573h-293l-30 78h422l15 -23z" />
    <glyph glyph-name="eight" unicode="8" 
d="M236 -13c-80 0 -185 39 -185 155c0 93 69 151 141 201c-64 50 -115 100 -115 166c0 91 70 160 185 160c103 0 167 -59 167 -133c0 -80 -58 -133 -118 -176c72 -55 143 -113 143 -180c0 -113 -93 -193 -218 -193zM138 172c0 -73 43 -113 107 -113c60 0 122 42 122 96
c0 53 -63 102 -130 154c-55 -38 -99 -78 -99 -137zM343 509c0 47 -23 97 -92 97c-54 0 -91 -31 -91 -81c0 -44 46 -86 104 -130c46 34 79 69 79 114z" />
    <glyph glyph-name="nine" unicode="9" 
d="M213 236c-91 0 -176 62 -176 193c0 129 75 241 211 241c149 0 210 -155 210 -315c0 -256 -118 -368 -266 -368c-48 0 -111 17 -144 57l35 68c20 -31 67 -56 114 -56c82 0 155 72 169 228c-22 -14 -84 -48 -153 -48zM231 599c-70 0 -103 -74 -103 -142
c0 -103 57 -150 127 -150c51 0 98 31 113 43c-1 121 -32 249 -137 249z" />
    <glyph glyph-name="colon" unicode=":" horiz-adv-x="258" 
d="M193 326c0 -35 -27 -63 -60 -63s-60 28 -60 63c0 33 27 61 60 61s60 -28 60 -61zM193 50c0 -35 -27 -63 -60 -63s-60 28 -60 63c0 33 27 61 60 61s60 -28 60 -61z" />
    <glyph glyph-name="semicolon" unicode=";" horiz-adv-x="258" 
d="M193 326c0 -35 -27 -63 -60 -63s-60 28 -60 63c0 33 27 61 60 61s60 -28 60 -61zM87 -141l-36 35c23 22 56 67 56 100c0 26 -9 36 -36 47v9c0 35 24 63 60 63c31 0 60 -23 60 -72c0 -50 -31 -134 -104 -182z" />
    <glyph glyph-name="less" unicode="&#x3c;" horiz-adv-x="369" 
d="M322 427l-173 -166l173 -164l-39 -64l-243 229l243 229z" />
    <glyph glyph-name="equal" unicode="=" horiz-adv-x="480" 
d="M58 218h356l-20 -74h-336v74zM58 383h366l-20 -74h-346v74z" />
    <glyph glyph-name="greater" unicode="&#x3e;" horiz-adv-x="369" 
d="M214 261l-173 166l39 64l243 -229l-243 -229l-39 64z" />
    <glyph glyph-name="question" unicode="?" horiz-adv-x="391" 
d="M176 161l-77 21c-2 9 -4 20 -4 29c0 137 165 138 165 250c0 40 -31 76 -93 76c-37 0 -88 -19 -92 -20l-30 64c34 15 79 25 122 25c108 0 184 -55 184 -135c0 -149 -184 -166 -184 -269c0 -10 9 -41 9 -41zM208 50c0 -35 -29 -63 -64 -63s-64 28 -64 63c0 33 29 61 64 61
s64 -28 64 -61z" />
    <glyph glyph-name="at" unicode="@" horiz-adv-x="902" 
d="M608 416v-246c0 -57 2 -106 20 -121c83 1 141 115 141 233c0 178 -104 313 -299 313c-193 0 -333 -191 -333 -373c0 -115 66 -244 185 -306l-66 -54c-126 76 -196 220 -196 358c0 223 159 438 424 438c200 0 361 -149 361 -350c0 -163 -86 -323 -254 -323
c-10 0 -21 1 -32 2c-15 16 -26 51 -28 81c-4 0 -52 -77 -131 -77c-83 0 -157 86 -157 204c0 187 137 311 292 311c28 0 54 -5 86 -15zM523 117l-1 321c-8 0 -190 -11 -190 -235c0 -69 40 -131 95 -131c29 0 62 10 96 45z" />
    <glyph glyph-name="asciitilde" unicode="~" horiz-adv-x="578" 
d="M529 269c-35 -36 -83 -62 -137 -62c-98 0 -141 64 -216 64c-42 0 -75 -23 -98 -43l-29 61c31 27 77 55 134 55c99 0 132 -64 215 -64c33 0 71 21 101 48z" />
    <glyph glyph-name="Adieresis" unicode="&#xc4;" horiz-adv-x="571" 
d="M-2 0l254 658l61 13l204 -561l50 -110h-109l-63 172h-245l-65 -172h-87zM265 477l-88 -229h193l-83 230l-10 39zM243 782c0 -31 -23 -55 -50 -55s-50 24 -50 55c0 30 23 55 50 55s50 -25 50 -55zM427 782c0 -31 -23 -55 -50 -55s-50 24 -50 55c0 30 23 55 50 55
s50 -25 50 -55z" />
    <glyph glyph-name="Aring" unicode="&#xc5;" horiz-adv-x="571" 
d="M-2 0l254 658l61 13l204 -561l50 -110h-109l-63 172h-245l-65 -172h-87zM265 477l-88 -229h193l-83 230l-10 39zM376 791c0 -48 -43 -88 -91 -88c-47 0 -89 40 -89 88s42 88 89 88c48 0 91 -40 91 -88zM339 792c0 29 -26 53 -53 53c-29 0 -53 -24 -53 -53
c0 -27 22 -57 53 -57c34 0 53 30 53 57z" />
    <glyph glyph-name="Ccedilla" unicode="&#xc7;" horiz-adv-x="617" 
d="M573 588l-46 -68c-47 49 -102 76 -168 76c-129 0 -218 -132 -218 -271c0 -161 113 -261 225 -261c91 0 194 84 194 84l22 -74s-96 -87 -232 -87c-155 0 -305 114 -305 328c0 205 142 355 318 355c83 0 151 -28 210 -82zM312 -58l10 51h29c29 -38 112 -55 112 -120
c0 -73 -56 -108 -116 -108c-33 0 -68 11 -96 31l24 49c14 -14 43 -23 70 -23c31 0 57 9 57 37c0 32 -55 50 -90 83z" />
    <glyph glyph-name="Eacute" unicode="&#xc9;" 
d="M112 0v566l-13 92h342v-74h-239v-210h209l-20 -74h-189v-226h250l-20 -74h-320zM324 875h110l-179 -163l-55 20z" />
    <glyph glyph-name="Ntilde" unicode="&#xd1;" horiz-adv-x="748" 
d="M647 658v-583l6 -75h-47l-375 420l-43 65v-410l10 -75h-92v566l-13 92h61l367 -416l44 -65v389l-13 92h95zM489 823l43 -26c-23 -40 -39 -71 -103 -71c-60 0 -87 36 -125 36c-15 0 -32 -6 -50 -33l-43 26c23 40 39 71 103 71c54 0 85 -38 124 -38c17 0 38 6 51 35z" />
    <glyph glyph-name="Odieresis" unicode="&#xd6;" horiz-adv-x="680" 
d="M346 670c193 0 289 -143 289 -335c0 -194 -131 -348 -302 -348c-183 0 -287 151 -287 336c0 193 129 347 300 347zM144 329c0 -149 79 -270 197 -270s196 121 196 270s-78 270 -196 270s-197 -121 -197 -270zM297 782c0 -31 -23 -55 -50 -55s-50 24 -50 55
c0 30 23 55 50 55s50 -25 50 -55zM481 782c0 -31 -23 -55 -50 -55s-50 24 -50 55c0 30 23 55 50 55s50 -25 50 -55z" />
    <glyph glyph-name="Udieresis" unicode="&#xdc;" horiz-adv-x="727" 
d="M537 252v314l-13 92h97v-395c0 -162 -106 -276 -270 -276c-236 0 -242 234 -242 250v329l-13 92h103v-413c0 -106 72 -185 170 -185c99 0 168 86 168 192zM317 782c0 -31 -23 -55 -50 -55s-50 24 -50 55c0 30 23 55 50 55s50 -25 50 -55zM501 782c0 -31 -23 -55 -50 -55
s-50 24 -50 55c0 30 23 55 50 55s50 -25 50 -55z" />
    <glyph glyph-name="aacute" unicode="&#xe1;" horiz-adv-x="514" 
d="M-2 0l232 531l51 11l183 -448l48 -94h-100l-57 138h-218l-59 -138h-80zM239 379l-75 -173h165l-70 173l-9 30zM304 746h110l-179 -163l-55 20z" />
    <glyph glyph-name="agrave" unicode="&#xe0;" horiz-adv-x="514" 
d="M-2 0l232 531l51 11l183 -448l48 -94h-100l-57 138h-218l-59 -138h-80zM239 379l-75 -173h165l-70 173l-9 30zM96 746h110l124 -143l-55 -20z" />
    <glyph glyph-name="acircumflex" unicode="&#xe2;" horiz-adv-x="514" 
d="M-2 0l232 531l51 11l183 -448l48 -94h-100l-57 138h-218l-59 -138h-80zM239 379l-75 -173h165l-70 173l-9 30zM223 746h62l124 -143l-53 -20l-103 93l-101 -93l-53 20z" />
    <glyph glyph-name="adieresis" unicode="&#xe4;" horiz-adv-x="514" 
d="M-2 0l232 531l51 11l183 -448l48 -94h-100l-57 138h-218l-59 -138h-80zM239 379l-75 -173h165l-70 173l-9 30zM212 653c0 -31 -23 -55 -50 -55s-50 24 -50 55c0 30 23 55 50 55s50 -25 50 -55zM396 653c0 -31 -23 -55 -50 -55s-50 24 -50 55c0 30 23 55 50 55
s50 -25 50 -55z" />
    <glyph glyph-name="atilde" unicode="&#xe3;" horiz-adv-x="514" 
d="M-2 0l232 531l51 11l183 -448l48 -94h-100l-57 138h-218l-59 -138h-80zM239 379l-75 -173h165l-70 173l-9 30zM372 694l43 -26c-23 -40 -39 -71 -103 -71c-60 0 -87 36 -125 36c-15 0 -32 -6 -50 -33l-43 26c23 40 39 71 103 71c54 0 85 -38 124 -38c17 0 38 6 51 35z
" />
    <glyph glyph-name="aring" unicode="&#xe5;" horiz-adv-x="514" 
d="M-2 0l232 531l51 11l183 -448l48 -94h-100l-57 138h-218l-59 -138h-80zM239 379l-75 -173h165l-70 173l-9 30zM345 662c0 -48 -43 -88 -91 -88c-47 0 -89 40 -89 88s42 88 89 88c48 0 91 -40 91 -88zM308 663c0 29 -26 53 -53 53c-29 0 -53 -24 -53 -53
c0 -27 22 -57 53 -57c34 0 53 30 53 57z" />
    <glyph glyph-name="ccedilla" unicode="&#xe7;" horiz-adv-x="565" 
d="M527 472l-46 -59c-42 39 -92 61 -151 61c-115 0 -194 -104 -194 -213c0 -127 101 -203 200 -203c83 0 176 65 176 65l22 -65s-90 -71 -212 -71c-141 0 -277 92 -277 266c0 166 129 288 289 288c74 0 137 -23 193 -69zM235 -58l10 51h29c29 -38 112 -55 112 -120
c0 -73 -56 -108 -116 -108c-33 0 -68 11 -96 31l24 49c14 -14 43 -23 70 -23c31 0 57 9 57 37c0 32 -55 50 -90 83z" />
    <glyph glyph-name="eacute" unicode="&#xe9;" horiz-adv-x="459" 
d="M112 0v453l-13 78h313v-67h-215v-158h190l-21 -67h-169v-172h227l-21 -67h-291zM289 745h110l-179 -163l-55 20z" />
    <glyph glyph-name="egrave" unicode="&#xe8;" horiz-adv-x="459" 
d="M112 0v453l-13 78h313v-67h-215v-158h190l-21 -67h-169v-172h227l-21 -67h-291zM81 745h110l124 -143l-55 -20z" />
    <glyph glyph-name="ecircumflex" unicode="&#xea;" horiz-adv-x="459" 
d="M112 0v453l-13 78h313v-67h-215v-158h190l-21 -67h-169v-172h227l-21 -67h-291zM208 745h62l124 -143l-53 -20l-103 93l-101 -93l-53 20z" />
    <glyph glyph-name="edieresis" unicode="&#xeb;" horiz-adv-x="459" 
d="M112 0v453l-13 78h313v-67h-215v-158h190l-21 -67h-169v-172h227l-21 -67h-291zM197 652c0 -31 -23 -55 -50 -55s-50 24 -50 55c0 30 23 55 50 55s50 -25 50 -55zM381 652c0 -31 -23 -55 -50 -55s-50 24 -50 55c0 30 23 55 50 55s50 -25 50 -55z" />
    <glyph glyph-name="iacute" unicode="&#xed;" horiz-adv-x="264" 
d="M178 531v-469l8 -62h-94v457l-12 74h98zM187 724h110l-179 -163l-55 20z" />
    <glyph glyph-name="igrave" unicode="&#xec;" horiz-adv-x="264" 
d="M178 531v-469l8 -62h-94v457l-12 74h98zM-21 724h110l124 -143l-55 -20z" />
    <glyph glyph-name="icircumflex" unicode="&#xee;" horiz-adv-x="264" 
d="M178 531v-469l8 -62h-94v457l-12 74h98zM106 724h62l124 -143l-53 -20l-103 93l-101 -93l-53 20z" />
    <glyph glyph-name="idieresis" unicode="&#xef;" horiz-adv-x="264" 
d="M178 531v-469l8 -62h-94v457l-12 74h98zM95 631c0 -31 -23 -55 -50 -55s-50 24 -50 55c0 30 23 55 50 55s50 -25 50 -55zM279 631c0 -31 -23 -55 -50 -55s-50 24 -50 55c0 30 23 55 50 55s50 -25 50 -55z" />
    <glyph glyph-name="ntilde" unicode="&#xf1;" horiz-adv-x="660" 
d="M592 531v-467l6 -64h-48l-334 335l-35 47v-317l10 -65h-86v454l-12 77h56l332 -334l35 -47v304l-12 77h88zM452 693l43 -26c-23 -40 -39 -71 -103 -71c-60 0 -87 36 -125 36c-15 0 -32 -6 -50 -33l-43 26c23 40 39 71 103 71c54 0 85 -38 124 -38c17 0 38 6 51 35z" />
    <glyph glyph-name="oacute" unicode="&#xf3;" horiz-adv-x="638" 
d="M318 541c175 0 262 -116 262 -272c0 -157 -118 -282 -273 -282c-166 0 -261 122 -261 272c0 157 117 282 272 282zM139 264c0 -117 70 -212 175 -212s174 95 174 212s-69 212 -174 212s-175 -95 -175 -212zM371 745h110l-179 -163l-55 20z" />
    <glyph glyph-name="ograve" unicode="&#xf2;" horiz-adv-x="638" 
d="M318 541c175 0 262 -116 262 -272c0 -157 -118 -282 -273 -282c-166 0 -261 122 -261 272c0 157 117 282 272 282zM139 264c0 -117 70 -212 175 -212s174 95 174 212s-69 212 -174 212s-175 -95 -175 -212zM163 745h110l124 -143l-55 -20z" />
    <glyph glyph-name="ocircumflex" unicode="&#xf4;" horiz-adv-x="638" 
d="M318 541c175 0 262 -116 262 -272c0 -157 -118 -282 -273 -282c-166 0 -261 122 -261 272c0 157 117 282 272 282zM139 264c0 -117 70 -212 175 -212s174 95 174 212s-69 212 -174 212s-175 -95 -175 -212zM290 745h62l124 -143l-53 -20l-103 93l-101 -93l-53 20z" />
    <glyph glyph-name="odieresis" unicode="&#xf6;" horiz-adv-x="638" 
d="M318 541c175 0 262 -116 262 -272c0 -157 -118 -282 -273 -282c-166 0 -261 122 -261 272c0 157 117 282 272 282zM139 264c0 -117 70 -212 175 -212s174 95 174 212s-69 212 -174 212s-175 -95 -175 -212zM279 652c0 -31 -23 -55 -50 -55s-50 24 -50 55
c0 30 23 55 50 55s50 -25 50 -55zM463 652c0 -31 -23 -55 -50 -55s-50 24 -50 55c0 30 23 55 50 55s50 -25 50 -55z" />
    <glyph glyph-name="otilde" unicode="&#xf5;" horiz-adv-x="638" 
d="M318 541c175 0 262 -116 262 -272c0 -157 -118 -282 -273 -282c-166 0 -261 122 -261 272c0 157 117 282 272 282zM139 264c0 -117 70 -212 175 -212s174 95 174 212s-69 212 -174 212s-175 -95 -175 -212zM439 693l43 -26c-23 -40 -39 -71 -103 -71
c-60 0 -87 36 -125 36c-15 0 -32 -6 -50 -33l-43 26c23 40 39 71 103 71c54 0 85 -38 124 -38c17 0 38 6 51 35z" />
    <glyph glyph-name="uacute" unicode="&#xfa;" horiz-adv-x="637" 
d="M494 203v251l-12 77h92v-320c0 -131 -97 -224 -245 -224c-215 0 -220 191 -220 204v262l-13 78h98v-334c0 -83 64 -144 151 -144c88 0 149 67 149 150zM375 745h110l-179 -163l-55 20z" />
    <glyph glyph-name="ugrave" unicode="&#xf9;" horiz-adv-x="637" 
d="M494 203v251l-12 77h92v-320c0 -131 -97 -224 -245 -224c-215 0 -220 191 -220 204v262l-13 78h98v-334c0 -83 64 -144 151 -144c88 0 149 67 149 150zM167 745h110l124 -143l-55 -20z" />
    <glyph glyph-name="ucircumflex" unicode="&#xfb;" horiz-adv-x="637" 
d="M494 203v251l-12 77h92v-320c0 -131 -97 -224 -245 -224c-215 0 -220 191 -220 204v262l-13 78h98v-334c0 -83 64 -144 151 -144c88 0 149 67 149 150zM294 745h62l124 -143l-53 -20l-103 93l-101 -93l-53 20z" />
    <glyph glyph-name="udieresis" unicode="&#xfc;" horiz-adv-x="637" 
d="M494 203v251l-12 77h92v-320c0 -131 -97 -224 -245 -224c-215 0 -220 191 -220 204v262l-13 78h98v-334c0 -83 64 -144 151 -144c88 0 149 67 149 150zM283 652c0 -31 -23 -55 -50 -55s-50 24 -50 55c0 30 23 55 50 55s50 -25 50 -55zM467 652c0 -31 -23 -55 -50 -55
s-50 24 -50 55c0 30 23 55 50 55s50 -25 50 -55z" />
    <glyph glyph-name="cent" unicode="&#xa2;" horiz-adv-x="472" 
d="M299 585v-79c63 -3 112 -28 146 -69l-41 -58c-14 22 -72 60 -105 61v-373c78 7 132 68 132 68l14 -79s-53 -52 -146 -65v-85h-52v81c-128 4 -196 127 -196 250c0 129 66 249 196 267v81h52zM141 253c0 -79 34 -159 106 -181v365c-70 -20 -106 -102 -106 -184z" />
    <glyph glyph-name="sterling" unicode="&#xa3;" horiz-adv-x="549" 
d="M509 -102h-468s78 166 78 340v35h-61v68h61v214c0 138 129 199 207 199c124 0 187 -64 187 -64l-34 -79s-66 70 -143 70c-81 0 -130 -57 -130 -118v-222h207l-30 -68h-177v-44c0 -152 -47 -257 -47 -257h370z" />
    <glyph glyph-name="germandbls" unicode="&#xdf;" horiz-adv-x="572" 
d="M255 80l3 22s57 -47 112 -47c48 0 88 18 88 71c0 83 -180 136 -180 240s121 146 121 252c0 35 -23 63 -83 63c-81 0 -133 -57 -133 -118v-460l10 -103h-94v423h-61v68h61v64c0 138 129 199 207 199s179 -34 179 -130c0 -101 -115 -167 -115 -228c0 -75 176 -148 176 -247
s-71 -162 -177 -162c-72 0 -120 38 -120 38z" />
    <glyph glyph-name="acute" unicode="&#xb4;" horiz-adv-x="338" 
d="M192 724h110l-179 -163l-55 20z" />
    <glyph glyph-name="dieresis" unicode="&#xa8;" horiz-adv-x="384" 
d="M152 631c0 -31 -23 -55 -50 -55s-50 24 -50 55c0 30 23 55 50 55s50 -25 50 -55zM336 631c0 -31 -23 -55 -50 -55s-50 24 -50 55c0 30 23 55 50 55s50 -25 50 -55z" />
    <glyph glyph-name="notequal" unicode="&#x2260;" horiz-adv-x="480" 
 />
    <glyph glyph-name="AE" unicode="&#xc6;" horiz-adv-x="765" 
d="M377 0v174h-217l-83 -174h-83l320 658h392v-74h-239v-210h209l-20 -74h-189v-226h250l-20 -74h-320zM195 248h182v318l-7 47z" />
    <glyph glyph-name="Oslash" unicode="&#xd8;" horiz-adv-x="680" 
d="M346 670c16 0 31 -1 45 -3l21 88h57l-24 -100c126 -41 190 -165 190 -320c0 -194 -131 -347 -302 -347c-17 0 -32 1 -47 4l-20 -83h-54l22 95c-121 44 -188 170 -188 319c0 193 129 347 300 347zM537 329c0 109 -42 203 -111 246l-123 -511c12 -3 25 -4 38 -4
c118 0 196 120 196 269zM144 329c0 -108 41 -201 109 -244l121 510c-11 3 -22 4 -33 4c-118 0 -197 -121 -197 -270z" />
    <glyph glyph-name="infinity" unicode="&#x221e;" horiz-adv-x="619" 
 />
    <glyph glyph-name="lessequal" unicode="&#x2264;" horiz-adv-x="1212" 
d="M45 348l527 174v-346zM1060 348c0 29 24 53 53 53c30 0 54 -24 54 -53c0 -30 -24 -54 -54 -54c-29 0 -53 24 -53 54zM855 348c0 29 24 53 53 53c30 0 54 -24 54 -53c0 -30 -24 -54 -54 -54c-29 0 -53 24 -53 54zM655 348c0 29 24 53 53 53c30 0 54 -24 54 -53
c0 -30 -24 -54 -54 -54c-29 0 -53 24 -53 54z" />
    <glyph glyph-name="greaterequal" unicode="&#x2265;" horiz-adv-x="1212" 
d="M640 522l527 -174l-527 -172v346zM152 348c0 -30 -24 -54 -53 -54c-30 0 -54 24 -54 54c0 29 24 53 54 53c29 0 53 -24 53 -53zM357 348c0 -30 -24 -54 -53 -54c-30 0 -54 24 -54 54c0 29 24 53 54 53c29 0 53 -24 53 -53zM557 348c0 -30 -24 -54 -53 -54
c-30 0 -54 24 -54 54c0 29 24 53 54 53c29 0 53 -24 53 -53z" />
    <glyph glyph-name="yen" unicode="&#xa5;" horiz-adv-x="520" 
d="M99 368h88l-114 219l-62 71h126l146 -277l148 277h87l-163 -290h110l-20 -68h-127v-97h137l-20 -68h-117v-60l10 -75h-100v135h-129v68h129v97h-129v68z" />
    <glyph glyph-name="partialdiff" unicode="&#x2202;" horiz-adv-x="12" 
d="M12 694v-694h-12v694h12z" />
    <glyph glyph-name="summation" unicode="&#x2211;" horiz-adv-x="425" 
d="M210 511l36 -60l61 39v-76h75l-38 -61l64 -37l-63 -37l38 -61h-76v-72l-60 36l-38 -65l-37 64l-60 -38v75h-74l38 63l-62 37l61 36l-35 60h73v71l61 -35z" />
    <glyph glyph-name="product" unicode="&#x220f;" horiz-adv-x="425" 
d="M368 473v-312h-310v312h310z" />
    <glyph glyph-name="pi" unicode="&#x3c0;" horiz-adv-x="425" 
d="M67 490l324 -174l-324 -172v346z" />
    <glyph glyph-name="integral" unicode="&#x222b;" horiz-adv-x="400" 
d="M56 0v66h111v506l-104 -32l-25 61l215 71v-606h114l-10 -66h-301z" />
    <glyph glyph-name="ordfeminine" unicode="&#xaa;" horiz-adv-x="405" 
d="M93 557l-40 55s49 59 152 59c62 0 119 -25 119 -96v-199c0 -44 34 -83 34 -83l-78 -11s-24 15 -25 48c-26 -26 -75 -48 -109 -48c-73 0 -107 50 -107 97c0 72 75 128 210 131v31c0 58 -23 78 -49 78c-64 0 -107 -62 -107 -62zM170 338c30 0 64 28 79 44v83
c-28 -2 -133 -11 -133 -74c0 -25 16 -53 54 -53z" />
    <glyph glyph-name="ordmasculine" unicode="&#xba;" horiz-adv-x="442" 
d="M45 470c0 117 72 202 189 202c93 0 163 -60 163 -188c0 -109 -69 -202 -189 -202c-159 0 -163 176 -163 188zM126 477c0 -78 36 -145 94 -145c59 0 95 67 95 145s-36 145 -95 145c-58 0 -94 -67 -94 -145z" />
    <glyph glyph-name="Omega" unicode="&#x3a9;" horiz-adv-x="368" 
 />
    <glyph glyph-name="Omega" unicode="&#x2126;" horiz-adv-x="368" 
 />
    <glyph glyph-name="ae" unicode="&#xe6;" horiz-adv-x="701" 
d="M338 0v133h-190l-76 -133h-78l289 526h353v-66h-214v-158h188l-18 -66h-170v-170h224l-18 -66h-290zM179 199h159v253l-5 32z" />
    <glyph glyph-name="oslash" unicode="&#xf8;" horiz-adv-x="623" 
d="M317 536c12 0 23 -1 34 -2l30 123h59l-32 -133c114 -33 170 -132 170 -256c0 -155 -117 -278 -272 -278c-10 0 -18 1 -27 2l-31 -128h-56l32 137c-114 33 -178 135 -178 257c0 155 117 278 271 278zM139 263c0 -88 39 -161 102 -192l95 399c-7 1 -15 2 -23 2
c-104 0 -174 -92 -174 -209zM487 263c0 85 -37 156 -97 189l-96 -396c6 -1 13 -1 19 -1c105 0 174 90 174 208z" />
    <glyph glyph-name="questiondown" unicode="&#xbf;" horiz-adv-x="391" 
d="M215 432l77 -21c2 -9 4 -20 4 -29c0 -137 -165 -138 -165 -250c0 -40 31 -76 93 -76c37 0 88 19 92 20l30 -64c-34 -15 -79 -25 -122 -25c-108 0 -184 55 -184 135c0 149 184 166 184 269c0 10 -9 41 -9 41zM183 543c0 35 29 63 64 63s64 -28 64 -63
c0 -33 -29 -61 -64 -61s-64 28 -64 61z" />
    <glyph glyph-name="exclamdown" unicode="&#xa1;" horiz-adv-x="264" 
d="M81 -13l13 428l63 8l12 -353l12 -72zM63 542c0 35 29 63 64 63s64 -28 64 -63c0 -33 -29 -61 -64 -61s-64 28 -64 61z" />
    <glyph glyph-name="radical" unicode="&#x221a;" horiz-adv-x="1212" 
d="M640 439l527 -174l-527 -172v346zM152 265c0 -30 -24 -54 -53 -54c-30 0 -54 24 -54 54c0 29 24 53 54 53c29 0 53 -24 53 -53zM357 265c0 -30 -24 -54 -53 -54c-30 0 -54 24 -54 54c0 29 24 53 54 53c29 0 53 -24 53 -53zM557 265c0 -30 -24 -54 -53 -54
c-30 0 -54 24 -54 54c0 29 24 53 54 53c29 0 53 -24 53 -53z" />
    <glyph glyph-name="florin" unicode="&#x192;" horiz-adv-x="483" 
d="M439 492l-44 -68h-101l-61 -436c-19 -137 -117 -230 -210 -231l-24 69c78 0 131 57 146 162l61 436h-69l14 68h63l10 73c19 139 111 189 188 189c38 0 76 -13 108 -34l-48 -69c-19 17 -42 24 -66 24c-38 0 -79 -31 -89 -92l-15 -91h137z" />
    <glyph glyph-name="approxequal" unicode="&#x2248;" horiz-adv-x="667" 
d="M333 621c161 0 294 -131 294 -293c0 -161 -133 -292 -294 -292c-162 0 -293 131 -293 292c0 162 131 293 293 293z" />
    <glyph glyph-name="Delta" unicode="&#x394;" horiz-adv-x="667" 
d="M627 328c0 -161 -133 -292 -294 -292c-162 0 -293 131 -293 292c0 162 131 293 293 293c161 0 294 -131 294 -293zM545 329l-324 174v-346z" />
    <glyph glyph-name="Delta" unicode="&#x2206;" horiz-adv-x="667" 
d="M627 328c0 -161 -133 -292 -294 -292c-162 0 -293 131 -293 292c0 162 131 293 293 293c161 0 294 -131 294 -293zM545 329l-324 174v-346z" />
    <glyph glyph-name="Agrave" unicode="&#xc0;" horiz-adv-x="571" 
d="M-2 0l254 658l61 13l204 -561l50 -110h-109l-63 172h-245l-65 -172h-87zM265 477l-88 -229h193l-83 230l-10 39zM127 875h110l124 -143l-55 -20z" />
    <glyph glyph-name="Atilde" unicode="&#xc3;" horiz-adv-x="571" 
d="M-2 0l254 658l61 13l204 -561l50 -110h-109l-63 172h-245l-65 -172h-87zM265 477l-88 -229h193l-83 230l-10 39zM403 823l43 -26c-23 -40 -39 -71 -103 -71c-60 0 -87 36 -125 36c-15 0 -32 -6 -50 -33l-43 26c23 40 39 71 103 71c54 0 85 -38 124 -38c17 0 38 6 51 35z
" />
    <glyph glyph-name="Otilde" unicode="&#xd5;" horiz-adv-x="680" 
d="M346 670c193 0 289 -143 289 -335c0 -194 -131 -348 -302 -348c-183 0 -287 151 -287 336c0 193 129 347 300 347zM144 329c0 -149 79 -270 197 -270s196 121 196 270s-78 270 -196 270s-197 -121 -197 -270zM457 838l43 -26c-23 -40 -39 -71 -103 -71
c-60 0 -87 36 -125 36c-15 0 -32 -6 -50 -33l-43 26c23 40 39 71 103 71c54 0 85 -38 124 -38c17 0 38 6 51 35z" />
    <glyph glyph-name="OE" unicode="&#x152;" horiz-adv-x="836" 
d="M777 658v-74h-239v-210h209l-20 -74h-189v-226h250l-20 -74h-417c-186 0 -305 146 -305 333c0 223 136 325 275 325h456zM143 327c0 -139 82 -260 196 -260h109v528h-109c-114 0 -196 -127 -196 -268z" />
    <glyph glyph-name="oe" unicode="&#x153;" horiz-adv-x="774" 
d="M701 0h-387c-167 0 -263 109 -263 259c0 156 119 267 274 267h384v-66h-214v-158h187l-18 -66h-169v-170h224zM321 61h89v406h-89c-105 0 -176 -85 -176 -203c0 -120 71 -203 176 -203z" />
    <glyph glyph-name="divide" unicode="&#xf7;" horiz-adv-x="473" 
d="M87 295h310l-20 -69h-290v69zM295 417c0 -35 -27 -63 -60 -63s-60 28 -60 63c0 33 27 61 60 61s60 -28 60 -61zM295 115c0 -35 -27 -63 -60 -63s-60 28 -60 63c0 33 27 61 60 61s60 -28 60 -61z" />
    <glyph glyph-name="lozenge" unicode="&#x25ca;" horiz-adv-x="425" 
d="M416 317l-203 -203l-203 203l203 203z" />
    <glyph glyph-name="ydieresis" unicode="&#xff;" horiz-adv-x="470" 
d="M284 232v-167l10 -65h-95v232l-140 237v-1l-53 63h114l117 -196l11 -30l15 29l119 197h88zM230 631c0 -31 -23 -55 -50 -55s-50 24 -50 55c0 30 23 55 50 55s50 -25 50 -55zM414 631c0 -31 -23 -55 -50 -55s-50 24 -50 55c0 30 23 55 50 55s50 -25 50 -55z" />
    <glyph glyph-name="Ydieresis" unicode="&#x178;" horiz-adv-x="509" 
d="M303 290v-215l10 -75h-100v290l-155 297l-52 71h116l130 -247l14 -40l19 42l131 245h90zM224 782c0 -31 -23 -55 -50 -55s-50 24 -50 55c0 30 23 55 50 55s50 -25 50 -55zM408 782c0 -31 -23 -55 -50 -55s-50 24 -50 55c0 30 23 55 50 55s50 -25 50 -55z" />
    <glyph glyph-name="fraction" unicode="&#x2044;" horiz-adv-x="510" 
d="M531 650l-450 -650h-85l466 677z" />
    <glyph glyph-name="Acircumflex" unicode="&#xc2;" horiz-adv-x="571" 
d="M-2 0l254 658l61 13l204 -561l50 -110h-109l-63 172h-245l-65 -172h-87zM265 477l-88 -229h193l-83 230l-10 39zM254 875h62l124 -143l-53 -20l-103 93l-101 -93l-53 20z" />
    <glyph glyph-name="Ecircumflex" unicode="&#xca;" 
d="M112 0v566l-13 92h342v-74h-239v-210h209l-20 -74h-189v-226h250l-20 -74h-320zM243 875h62l124 -143l-53 -20l-103 93l-101 -93l-53 20z" />
    <glyph glyph-name="Aacute" unicode="&#xc1;" horiz-adv-x="571" 
d="M-2 0l254 658l61 13l204 -561l50 -110h-109l-63 172h-245l-65 -172h-87zM265 477l-88 -229h193l-83 230l-10 39zM335 875h110l-179 -163l-55 20z" />
    <glyph glyph-name="Edieresis" unicode="&#xcb;" 
d="M112 0v566l-13 92h342v-74h-239v-210h209l-20 -74h-189v-226h250l-20 -74h-320zM232 782c0 -31 -23 -55 -50 -55s-50 24 -50 55c0 30 23 55 50 55s50 -25 50 -55zM416 782c0 -31 -23 -55 -50 -55s-50 24 -50 55c0 30 23 55 50 55s50 -25 50 -55z" />
    <glyph glyph-name="Egrave" unicode="&#xc8;" 
d="M112 0v566l-13 92h342v-74h-239v-210h209l-20 -74h-189v-226h250l-20 -74h-320zM116 875h110l124 -143l-55 -20z" />
    <glyph glyph-name="Iacute" unicode="&#xcd;" horiz-adv-x="312" 
d="M202 658v-583l10 -75h-100v566l-13 92h103zM209 875h110l-179 -163l-55 20z" />
    <glyph glyph-name="Icircumflex" unicode="&#xce;" horiz-adv-x="312" 
d="M202 658v-583l10 -75h-100v566l-13 92h103zM128 875h62l124 -143l-53 -20l-103 93l-101 -93l-53 20z" />
    <glyph glyph-name="Idieresis" unicode="&#xcf;" horiz-adv-x="312" 
d="M202 658v-583l10 -75h-100v566l-13 92h103zM117 782c0 -31 -23 -55 -50 -55s-50 24 -50 55c0 30 23 55 50 55s50 -25 50 -55zM301 782c0 -31 -23 -55 -50 -55s-50 24 -50 55c0 30 23 55 50 55s50 -25 50 -55z" />
    <glyph glyph-name="Igrave" unicode="&#xcc;" horiz-adv-x="312" 
d="M202 658v-583l10 -75h-100v566l-13 92h103zM1 875h110l124 -143l-55 -20z" />
    <glyph glyph-name="Oacute" unicode="&#xd3;" horiz-adv-x="680" 
d="M346 670c193 0 289 -143 289 -335c0 -194 -131 -348 -302 -348c-183 0 -287 151 -287 336c0 193 129 347 300 347zM144 329c0 -149 79 -270 197 -270s196 121 196 270s-78 270 -196 270s-197 -121 -197 -270zM389 875h110l-179 -163l-55 20z" />
    <glyph glyph-name="Ocircumflex" unicode="&#xd4;" horiz-adv-x="680" 
d="M346 670c193 0 289 -143 289 -335c0 -194 -131 -348 -302 -348c-183 0 -287 151 -287 336c0 193 129 347 300 347zM144 329c0 -149 79 -270 197 -270s196 121 196 270s-78 270 -196 270s-197 -121 -197 -270zM308 875h62l124 -143l-53 -20l-103 93l-101 -93l-53 20z" />
    <glyph glyph-name="apple" horiz-adv-x="1019" 
d="M984 418v-252l-112 -66v-138l-241 -128l-120 64l-122 -64l-241 128v138l-113 66v252l113 65v137l241 129l122 -65l120 65l241 -129v-137zM938 178v227l-102 59v124l-218 115l-107 -59l-110 59l-217 -115v-124l-103 -59v-227l103 -58v-125l217 -116l110 60l107 -60
l218 116v125zM895 393v-203l-92 -54v-111l-195 -104l-97 53l-100 -53l-194 104v111l-91 54v203l91 54v111l194 104l100 -54l97 54l195 -104v-111zM368 530l13 -92v-386h107l-17 58v151h169l20 74h-189v121h219v74h-322z" />
    <glyph glyph-name="Ograve" unicode="&#xd2;" horiz-adv-x="680" 
d="M346 670c193 0 289 -143 289 -335c0 -194 -131 -348 -302 -348c-183 0 -287 151 -287 336c0 193 129 347 300 347zM144 329c0 -149 79 -270 197 -270s196 121 196 270s-78 270 -196 270s-197 -121 -197 -270zM181 875h110l124 -143l-55 -20z" />
    <glyph glyph-name="Uacute" unicode="&#xda;" horiz-adv-x="727" 
d="M537 252v314l-13 92h97v-395c0 -162 -106 -276 -270 -276c-236 0 -242 234 -242 250v329l-13 92h103v-413c0 -106 72 -185 170 -185c99 0 168 86 168 192zM409 875h110l-179 -163l-55 20z" />
    <glyph glyph-name="Ucircumflex" unicode="&#xdb;" horiz-adv-x="727" 
d="M537 252v314l-13 92h97v-395c0 -162 -106 -276 -270 -276c-236 0 -242 234 -242 250v329l-13 92h103v-413c0 -106 72 -185 170 -185c99 0 168 86 168 192zM328 875h62l124 -143l-53 -20l-103 93l-101 -93l-53 20z" />
    <glyph glyph-name="Ugrave" unicode="&#xd9;" horiz-adv-x="727" 
d="M537 252v314l-13 92h97v-395c0 -162 -106 -276 -270 -276c-236 0 -242 234 -242 250v329l-13 92h103v-413c0 -106 72 -185 170 -185c99 0 168 86 168 192zM201 875h110l124 -143l-55 -20z" />
    <glyph glyph-name="dotlessi" unicode="&#x131;" horiz-adv-x="264" 
d="M178 531v-469l8 -62h-94v457l-12 74h98z" />
    <glyph glyph-name="circumflex" unicode="&#x2c6;" horiz-adv-x="402" 
d="M169 724h62l124 -143l-53 -20l-103 93l-101 -93l-53 20z" />
    <glyph glyph-name="tilde" unicode="&#x2dc;" horiz-adv-x="380" 
d="M315 672l43 -26c-23 -40 -39 -71 -103 -71c-60 0 -87 36 -125 36c-15 0 -32 -6 -50 -33l-43 26c23 40 39 71 103 71c54 0 85 -38 124 -38c17 0 38 6 51 35z" />
    <glyph glyph-name="macron" unicode="&#xaf;" horiz-adv-x="335" 
d="M50 665h247l-20 -74h-227v74z" />
    <glyph glyph-name="breve" unicode="&#x2d8;" horiz-adv-x="402" 
d="M200 627c64 0 102 97 102 97l55 -20s-39 -143 -157 -143s-157 143 -157 143l55 20s38 -97 102 -97z" />
    <glyph glyph-name="dotaccent" unicode="&#x2d9;" horiz-adv-x="186" 
d="M147 626c0 -30 -24 -54 -53 -54c-30 0 -54 24 -54 54c0 29 24 53 54 53c29 0 53 -24 53 -53z" />
    <glyph glyph-name="ring" unicode="&#x2da;" horiz-adv-x="520" 
d="M346 650c0 -48 -43 -88 -91 -88c-47 0 -89 40 -89 88s42 88 89 88c48 0 91 -40 91 -88zM309 651c0 29 -26 53 -53 53c-29 0 -53 -24 -53 -53c0 -27 22 -57 53 -57c34 0 53 30 53 57z" />
    <glyph glyph-name="cedilla" unicode="&#xb8;" horiz-adv-x="402" 
d="M141 -58l10 51h29c29 -38 112 -55 112 -120c0 -73 -56 -108 -116 -108c-33 0 -68 11 -96 31l24 49c14 -14 43 -23 70 -23c31 0 57 9 57 37c0 32 -55 50 -90 83z" />
    <glyph glyph-name="hungarumlaut" unicode="&#x2dd;" horiz-adv-x="585" 
d="M192 724h110l-179 -163l-55 20zM375 724h110l-179 -163l-55 20z" />
    <glyph glyph-name="ogonek" unicode="&#x2db;" horiz-adv-x="276" 
d="M145 0h64s-95 -88 -95 -139c0 -40 73 -38 99 -34v-59c-5 -1 -13 -1 -19 -1c-101 0 -145 27 -145 82c0 74 96 151 96 151z" />
    <glyph glyph-name="caron" unicode="&#x2c7;" horiz-adv-x="402" 
d="M233 561h-66l-124 143l55 20l102 -93l102 93l55 -20z" />
    <glyph glyph-name="one.t" horiz-adv-x="400" 
d="M56 0v66h111v506l-104 -32l-25 61l215 71v-606h114l-10 -66h-301z" />
    <glyph glyph-name="B" unicode="B" horiz-adv-x="559" 
d="M202 588v-195h72c38 0 71 -7 73 -7c17 23 38 57 38 101c0 70 -43 103 -140 103c-13 0 -28 -1 -43 -2zM99 658l158 5c125 4 214 -52 214 -156c0 -55 -49 -111 -75 -137c65 -30 113 -71 113 -166c0 -107 -64 -204 -246 -204h-151v566zM202 319v-247h73
c107 0 139 62 139 123c0 91 -53 124 -155 124h-57z" />
    <glyph glyph-name="C" unicode="C" horiz-adv-x="617" 
d="M573 588l-46 -68c-47 49 -102 76 -168 76c-129 0 -218 -132 -218 -271c0 -161 113 -261 225 -261c91 0 194 84 194 84l22 -74s-96 -87 -232 -87c-155 0 -305 114 -305 328c0 205 142 355 318 355c83 0 151 -28 210 -82z" />
    <glyph glyph-name="afii10051" unicode="&#x402;" horiz-adv-x="642" 
d="M602 216v-76c0 -119 -39 -170 -115 -170c-22 0 -52 11 -52 11l-13 81s25 -10 44 -10c26 0 46 23 46 88v76c0 93 -47 132 -134 132c-84 0 -158 -37 -158 -37v-219l13 -92h-103v582h-110v76h350v-76h-150v-192s84 36 191 36c111 0 191 -64 191 -210z" />
    <glyph glyph-name="afii10052" unicode="&#x403;" horiz-adv-x="450" 
d="M112 566l-13 92h342v-76h-239v-507l10 -75h-100v566zM348 869h110l-179 -163l-55 20z" />
    <glyph glyph-name="quotesinglbase" unicode="&#x201a;" horiz-adv-x="270" 
d="M96 -141l-36 35c23 22 56 67 56 100c0 26 -9 36 -36 47v9c0 35 24 63 60 63c31 0 60 -23 60 -72c0 -50 -31 -134 -104 -182z" />
    <glyph glyph-name="afii10100" unicode="&#x453;" horiz-adv-x="438" 
d="M111 456l-12 75h314v-72h-217v-398l9 -61h-94v456zM329 702h100l-163 -132l-50 16z" />
    <glyph glyph-name="quotedblbase" unicode="&#x201e;" horiz-adv-x="445" 
d="M96 -141l-36 35c23 22 56 67 56 100c0 26 -9 36 -36 47v9c0 35 24 63 60 63c31 0 60 -23 60 -72c0 -50 -31 -134 -104 -182zM271 -141l-36 35c23 22 56 67 56 100c0 26 -9 36 -36 47v9c0 35 24 63 60 63c31 0 60 -23 60 -72c0 -50 -31 -134 -104 -182z" />
    <glyph glyph-name="ellipsis" unicode="&#x2026;" horiz-adv-x="663" 
d="M184 41c0 -30 -24 -54 -53 -54c-30 0 -54 24 -54 54c0 29 24 53 54 53c29 0 53 -24 53 -53zM389 41c0 -30 -24 -54 -53 -54c-30 0 -54 24 -54 54c0 29 24 53 54 53c29 0 53 -24 53 -53zM589 41c0 -30 -24 -54 -53 -54c-30 0 -54 24 -54 54c0 29 24 53 54 53
c29 0 53 -24 53 -53z" />
    <glyph glyph-name="dagger" unicode="&#x2020;" horiz-adv-x="487" 
d="M264 -245h-83v669h-129v68h129v158l83 11v-169h163l-30 -68h-133v-669z" />
    <glyph glyph-name="daggerdbl" unicode="&#x2021;" horiz-adv-x="487" 
d="M264 -245h-83v245h-129v68h129v356h-129v68h129v158l83 11v-169h163l-30 -68h-133v-356h150l-30 -68h-120v-245z" />
    <glyph glyph-name="Euro" unicode="&#x20ac;" horiz-adv-x="601" 
d="M19 435h64c41 151 160 238 299 238c56 0 124 -14 167 -42l-24 -74c-48 37 -103 47 -151 47c-94 0 -174 -69 -208 -169h317l-23 -69h-309c-1 -11 -2 -26 -2 -41s1 -29 2 -42h282l-23 -69h-246c29 -97 99 -154 207 -154c53 0 119 19 164 56v-79c-55 -35 -120 -50 -182 -50
c-129 0 -240 78 -274 227h-60v69h50c-1 10 -1 21 -1 32c0 17 1 34 2 51h-51v69z" />
    <glyph glyph-name="perthousand" unicode="&#x2030;" horiz-adv-x="1160" 
d="M369 507c0 -82 -72 -150 -153 -150c-79 0 -150 68 -150 150s71 150 150 150c81 0 153 -68 153 -150zM310 509c0 49 -46 90 -93 90c-50 0 -92 -41 -92 -90c0 -46 39 -97 92 -97c59 0 93 51 93 97zM744 137c0 -82 -72 -150 -153 -150c-79 0 -150 68 -150 150
s71 150 150 150c81 0 153 -68 153 -150zM685 139c0 49 -46 90 -93 90c-50 0 -92 -41 -92 -90c0 -46 39 -97 92 -97c59 0 93 51 93 97zM664 647l-448 -647h-77l456 674zM1097 137c0 -82 -72 -150 -153 -150c-79 0 -150 68 -150 150s71 150 150 150c81 0 153 -68 153 -150z
M1038 139c0 49 -46 90 -93 90c-50 0 -92 -41 -92 -90c0 -46 39 -97 92 -97c59 0 93 51 93 97z" />
    <glyph glyph-name="afii10058" unicode="&#x409;" horiz-adv-x="885" 
d="M249 578l-5 -118c-11 -270 -22 -473 -171 -473c-16 0 -35 3 -49 7l-9 83c12 -4 26 -6 40 -6c76 0 87 120 100 389l5 106l-13 92h381v-258h71c182 0 246 -97 246 -200s-64 -200 -246 -200h-161v578h-189zM528 328v-256h83c107 0 139 62 139 128c0 96 -53 128 -155 128h-67
z" />
    <glyph glyph-name="guilsinglleft" unicode="&#x2039;" horiz-adv-x="369" 
d="M322 427l-173 -166l173 -164l-39 -64l-243 229l243 229z" />
    <glyph glyph-name="afii10059" unicode="&#x40a;" horiz-adv-x="896" 
d="M539 658v-272h71c182 0 246 -101 246 -193c0 -93 -64 -193 -246 -193h-161v306h-247v-231l10 -75h-100v566l-13 92h103v-272h247v180l-13 92h103zM539 314v-242h83c107 0 139 65 139 121c0 87 -53 121 -155 121h-67z" />
    <glyph glyph-name="afii10061" unicode="&#x40c;" horiz-adv-x="587" 
d="M202 377h71l94 176c49 92 100 117 146 117c17 0 32 -3 40 -6l9 -83c-8 2 -21 3 -33 3c-24 0 -51 -19 -81 -72l-96 -172l220 -340h-114l-185 297h-71v-222l10 -75h-100v566l-13 92h103v-281zM389 853h110l-179 -163l-55 20z" />
    <glyph glyph-name="afii10060" unicode="&#x40b;" horiz-adv-x="650" 
d="M15 582v76h350v-76h-150v-192s84 36 191 36c111 0 191 -64 191 -210v-124l13 -92h-103v216c0 93 -47 132 -134 132c-84 0 -158 -37 -158 -37v-219l13 -92h-103v582h-110z" />
    <glyph glyph-name="afii10145" unicode="&#x40f;" horiz-adv-x="753" 
d="M644 583v-583h-221v-160h-90v160h-234l13 92v566h100l-10 -75v-503h352v578h100z" />
    <glyph glyph-name="afii10099" unicode="&#x452;" horiz-adv-x="573" 
d="M533 175v-62c0 -96 -36 -137 -108 -137c-20 0 -47 9 -47 9l-12 65s23 -8 40 -8c24 0 42 19 42 71v62c0 75 -43 102 -122 102c-76 0 -141 -30 -141 -30v-172l12 -75h-97v469h-100v62h322v-62h-137v-153s74 29 171 29c104 0 177 -52 177 -170z" />
    <glyph glyph-name="quoteleft" unicode="&#x2018;" horiz-adv-x="270" 
d="M174 674l36 -35c-23 -22 -56 -67 -56 -100c0 -26 9 -36 36 -47c0 -39 -18 -72 -60 -72c-31 0 -60 23 -60 72c0 50 31 134 104 182z" />
    <glyph glyph-name="quoteright" unicode="&#x2019;" horiz-adv-x="270" 
d="M96 420l-36 35c23 22 56 67 56 100c0 26 -9 36 -36 47v9c0 35 24 63 60 63c31 0 60 -23 60 -72c0 -50 -31 -134 -104 -182z" />
    <glyph glyph-name="quotedblleft" unicode="&#x201c;" horiz-adv-x="445" 
d="M174 674l36 -35c-23 -22 -56 -67 -56 -100c0 -26 9 -36 36 -47c0 -39 -18 -72 -60 -72c-31 0 -60 23 -60 72c0 50 31 134 104 182zM349 674l36 -35c-23 -22 -56 -67 -56 -100c0 -26 9 -36 36 -47c0 -39 -18 -72 -60 -72c-31 0 -60 23 -60 72c0 50 31 134 104 182z" />
    <glyph glyph-name="quotedblright" unicode="&#x201d;" horiz-adv-x="445" 
d="M96 420l-36 35c23 22 56 67 56 100c0 26 -9 36 -36 47v9c0 35 24 63 60 63c31 0 60 -23 60 -72c0 -50 -31 -134 -104 -182zM271 420l-36 35c23 22 56 67 56 100c0 26 -9 36 -36 47v9c0 35 24 63 60 63c31 0 60 -23 60 -72c0 -50 -31 -134 -104 -182z" />
    <glyph glyph-name="bullet" unicode="&#x2022;" horiz-adv-x="424" 
d="M211 405c73 0 133 -59 133 -132c0 -75 -60 -134 -133 -134c-75 0 -134 59 -134 134c0 73 59 132 134 132z" />
    <glyph glyph-name="endash" unicode="&#x2013;" horiz-adv-x="452" 
d="M31 284h397l-20 -74h-377v74z" />
    <glyph glyph-name="emdash" unicode="&#x2014;" horiz-adv-x="679" 
d="M31 284h623l-20 -74h-603v74z" />
    <glyph glyph-name="trademark" unicode="&#x2122;" horiz-adv-x="802" 
d="M27 657v48h309v-48h-120v-282l6 -46h-77v328h-118zM564 361l-139 190v-176l6 -46h-67v322l-7 54h44l166 -235l149 235h43v-330l6 -46h-77v225z" />
    <glyph glyph-name="afii10106" unicode="&#x459;" horiz-adv-x="813" 
d="M230 466l-5 -93c-12 -219 -22 -384 -158 -384c-14 0 -31 3 -44 6l-8 67c11 -3 23 -4 36 -4c69 0 79 97 91 315l5 83l-12 75h346v-199h65c166 0 227 -81 227 -164s-61 -168 -227 -168h-150v466h-166zM481 265v-198h76c97 0 126 48 126 101c0 78 -48 97 -141 97h-61z" />
    <glyph glyph-name="guilsinglright" unicode="&#x203a;" horiz-adv-x="369" 
d="M214 261l-173 166l39 64l243 -229l-243 -229l-39 64z" />
    <glyph glyph-name="afii10107" unicode="&#x45a;" horiz-adv-x="837" 
d="M506 531v-212h65c166 0 226 -85 226 -160s-60 -159 -226 -159h-150v248h-225v-187l9 -61h-94v456l-12 75h97v-218h225v143l-12 75h97zM506 254v-190h76c97 0 125 50 125 95c0 71 -47 95 -140 95h-61z" />
    <glyph glyph-name="afii10109" unicode="&#x45c;" horiz-adv-x="548" 
d="M196 305h64l86 141c45 74 91 95 133 95c15 0 29 -3 36 -5l8 -67c-7 1 -19 2 -30 2c-21 0 -46 -15 -73 -58l-88 -138l201 -275h-104l-169 241h-64v-180l9 -61h-94v456l-12 75h97v-226zM366 689h100l-163 -132l-50 16z" />
    <glyph glyph-name="afii10108" unicode="&#x45b;" horiz-adv-x="584" 
d="M0 466v65h321v-65h-136v-150s76 29 173 29c101 0 174 -52 174 -170v-100l12 -75h-97v175c0 75 -39 101 -119 101c-76 0 -143 -30 -143 -30v-171l11 -75h-96v466h-100z" />
    <glyph glyph-name="afii10193" unicode="&#x45f;" horiz-adv-x="709" 
d="M601 470v-470h-203v-130h-84v130h-215l12 75v456h94l-9 -61v-401h320v462h94z" />
    <glyph glyph-name="afii10062" unicode="&#x40e;" horiz-adv-x="615" 
d="M605 658l-222 -512c-45 -103 -103 -159 -198 -159c-17 0 -34 4 -52 11l-14 85c17 -6 34 -10 51 -10c55 0 92 21 116 68l-203 407l-73 110h123l177 -355l24 -68l23 68l153 355h95zM330 746c64 0 102 97 102 97l55 -20s-39 -143 -157 -143s-157 143 -157 143l55 20
s38 -97 102 -97z" />
    <glyph glyph-name="afii10110" unicode="&#x45e;" horiz-adv-x="564" 
d="M554 531l-202 -413c-41 -83 -96 -129 -183 -129c-15 0 -31 4 -47 9l-13 69c16 -5 31 -8 47 -8c48 0 81 17 103 55l-182 328l-67 89h112l161 -286l22 -55l21 55l139 286h89zM301 602c59 0 93 79 93 79l50 -16s-35 -116 -143 -116c-107 0 -143 116 -143 116l50 16
s35 -79 93 -79z" />
    <glyph glyph-name="afii10057" unicode="&#x408;" horiz-adv-x="297" 
d="M196 658v-620c0 -123 -59 -237 -196 -237c-16 0 -34 2 -54 6l5 88c17 -8 33 -13 49 -13c65 0 106 72 106 156v528l-13 92h103z" />
    <glyph glyph-name="afii10050" unicode="&#x490;" horiz-adv-x="450" 
d="M112 566l-13 92h262v77h80v-153h-239v-507l10 -75h-100v566z" />
    <glyph glyph-name="section" unicode="&#xa7;" horiz-adv-x="420" 
d="M270 684c102 -678 105 -690 105 -700c0 -104 -92 -163 -194 -163c-126 0 -142 65 -142 65l4 65c34 -40 82 -59 130 -59c-105 678 -106 689 -106 699c0 103 92 164 194 164c126 0 142 -65 142 -65l-4 -65c-34 40 -84 59 -129 59zM236 -99c41 13 73 38 73 84
c0 5 0 11 -104 690c-41 -12 -73 -38 -73 -84c0 -5 1 -11 104 -690z" />
    <glyph glyph-name="afii10023" unicode="&#x401;" 
d="M112 0v566l-13 92h342v-74h-239v-210h209l-20 -74h-189v-226h250l-20 -74h-320zM232 782c0 -31 -23 -55 -50 -55s-50 24 -50 55c0 30 23 55 50 55s50 -25 50 -55zM416 782c0 -31 -23 -55 -50 -55s-50 24 -50 55c0 30 23 55 50 55s50 -25 50 -55z" />
    <glyph glyph-name="copyright" unicode="&#xa9;" horiz-adv-x="790" 
d="M524 464l-37 -52c-25 35 -59 44 -86 44c-61 0 -94 -57 -94 -124c0 -64 31 -128 99 -128c57 0 106 54 106 54l12 -66s-51 -51 -143 -51c-96 0 -148 91 -148 180c0 102 58 195 170 195c54 0 93 -19 121 -52zM735 341c0 -209 -141 -354 -356 -354c-190 0 -324 141 -324 325
c0 208 146 352 365 352c184 0 315 -140 315 -323zM673 328c0 166 -114 285 -274 285c-153 0 -280 -121 -280 -289c0 -162 121 -284 282 -284c147 0 272 121 272 288z" />
    <glyph glyph-name="afii10053" unicode="&#x404;" horiz-adv-x="617" 
d="M419 380v-80h-277c9 -155 104 -236 224 -236c91 0 194 84 194 84l22 -74s-96 -87 -232 -87c-170 0 -305 104 -305 328c0 220 122 355 318 355c83 0 151 -28 210 -82l-46 -68c-47 49 -102 76 -168 76c-130 0 -200 -90 -215 -216h275z" />
    <glyph glyph-name="guillemotleft" unicode="&#xab;" horiz-adv-x="636" 
d="M322 427l-173 -166l173 -164l-39 -64l-243 229l243 229zM551 427l-173 -166l173 -164l-39 -64l-243 229l243 229z" />
    <glyph glyph-name="logicalnot" unicode="&#xac;" horiz-adv-x="1212" 
d="M45 265l527 174v-346zM1060 265c0 29 24 53 53 53c30 0 54 -24 54 -53c0 -30 -24 -54 -54 -54c-29 0 -53 24 -53 54zM855 265c0 29 24 53 53 53c30 0 54 -24 54 -53c0 -30 -24 -54 -54 -54c-29 0 -53 24 -53 54zM655 265c0 29 24 53 53 53c30 0 54 -24 54 -53
c0 -30 -24 -54 -54 -54c-29 0 -53 24 -53 54z" />
    <glyph glyph-name="registered" unicode="&#xae;" horiz-adv-x="790" 
d="M564 156h-80l-91 129h-28v-87c0 -6 1 -14 5 -42h-74v299l-6 53h108c63 0 122 -36 122 -108c0 -40 -22 -80 -67 -100zM389 325c31 0 62 37 62 75c0 39 -31 66 -62 66h-24v-141h24zM735 341c0 -209 -141 -354 -356 -354c-190 0 -324 141 -324 325c0 208 146 352 365 352
c184 0 315 -140 315 -323zM673 328c0 166 -114 285 -274 285c-153 0 -280 -121 -280 -289c0 -162 121 -284 282 -284c147 0 272 121 272 288z" />
    <glyph glyph-name="afii10056" unicode="&#x407;" horiz-adv-x="312" 
d="M202 658v-583l10 -75h-100v566l-13 92h103zM117 782c0 -31 -23 -55 -50 -55s-50 24 -50 55c0 30 23 55 50 55s50 -25 50 -55zM301 782c0 -31 -23 -55 -50 -55s-50 24 -50 55c0 30 23 55 50 55s50 -25 50 -55z" />
    <glyph glyph-name="degree" unicode="&#xb0;" horiz-adv-x="399" 
d="M364 576c0 -92 -80 -168 -170 -168c-88 0 -168 76 -168 168s80 167 168 167c90 0 170 -75 170 -167zM298 578c0 54 -51 100 -103 100c-56 0 -103 -46 -103 -100c0 -52 43 -108 103 -108c66 0 103 56 103 108z" />
    <glyph glyph-name="plusminus" unicode="&#xb1;" horiz-adv-x="471" 
d="M201 140v146h-143v74h143v149l70 -19v-130h149l-20 -74h-129v-146h-70zM87 69h310l-20 -69h-290v69z" />
    <glyph glyph-name="uni0406" unicode="&#x406;" horiz-adv-x="312" 
d="M202 658v-583l10 -75h-100v566l-13 92h103z" />
    <glyph glyph-name="afii10103" unicode="&#x456;" horiz-adv-x="307" 
d="M197 531v-466l10 -65h-95v453l-13 78h98z" />
    <glyph glyph-name="afii10098" unicode="&#x491;" horiz-adv-x="422" 
d="M111 456l-12 75h242v62h72v-134h-217v-398l9 -61h-94v456z" />
    <glyph glyph-name="mu" unicode="&#xb5;" horiz-adv-x="519" 
 />
    <glyph glyph-name="paragraph" unicode="&#xb6;" horiz-adv-x="622" 
d="M58 365c0 162 131 293 294 293h60v-902h-60v316c-162 0 -294 131 -294 293zM537 658v-902h-60v902h60z" />
    <glyph glyph-name="periodcentered" unicode="&#xb7;" horiz-adv-x="258" 
d="M186 264c0 -35 -27 -63 -60 -63s-60 28 -60 63c0 33 27 61 60 61s60 -28 60 -61z" />
    <glyph glyph-name="afii10071" unicode="&#x451;" horiz-adv-x="474" 
d="M114 0v453l-13 78h313v-67h-215v-158h190l-21 -67h-169v-172h227l-21 -67h-291zM199 652c0 -31 -23 -55 -50 -55s-50 24 -50 55c0 30 23 55 50 55s50 -25 50 -55zM383 652c0 -31 -23 -55 -50 -55s-50 24 -50 55c0 30 23 55 50 55s50 -25 50 -55z" />
    <glyph glyph-name="afii61352" unicode="&#x2116;" horiz-adv-x="1038" 
d="M647 658v-583l6 -75h-47l-375 420l-43 65v-410l10 -75h-92v566l-13 92h61l367 -416l44 -65v389l-13 92h95zM1013 508c0 -82 -72 -150 -153 -150c-79 0 -150 68 -150 150s71 150 150 150c81 0 153 -68 153 -150zM954 510c0 49 -46 90 -93 90c-50 0 -92 -41 -92 -90
c0 -46 39 -97 92 -97c59 0 93 51 93 97zM724 250v59h275v-59h-275z" />
    <glyph glyph-name="afii10101" unicode="&#x454;" horiz-adv-x="570" 
d="M387 309v-69h-252c7 -123 94 -182 204 -182c82 0 176 68 176 68l20 -66s-87 -71 -211 -71c-155 0 -279 85 -279 266c0 178 113 286 291 286c75 0 137 -23 191 -67l-42 -61c-43 40 -93 62 -153 62c-118 0 -183 -65 -195 -166h250z" />
    <glyph glyph-name="guillemotright" unicode="&#xbb;" horiz-adv-x="643" 
d="M478 261l-173 166l39 64l243 -229l-243 -229l-39 64zM249 261l-173 166l39 64l243 -229l-243 -229l-39 64z" />
    <glyph glyph-name="afii10105" unicode="&#x458;" horiz-adv-x="276" 
d="M175 531v-497c0 -100 -54 -193 -178 -193c-15 0 -33 1 -51 5l5 79c16 -7 32 -11 46 -11c57 0 93 55 93 120v420l-12 77h97z" />
    <glyph glyph-name="afii10054" unicode="&#x405;" horiz-adv-x="480" 
d="M54 61c1 1 10 86 10 86s73 -88 172 -88c57 0 107 39 107 109c0 132 -287 137 -287 314c0 103 80 188 193 188c79 0 135 -28 165 -47l-26 -73c-2 5 -66 49 -142 49c-47 0 -96 -32 -96 -90c0 -144 282 -132 282 -328c0 -113 -77 -194 -199 -194c-118 0 -179 74 -179 74z
" />
    <glyph glyph-name="afii10102" unicode="&#x455;" horiz-adv-x="446" 
d="M55 47l-1 3c0 -1 10 77 10 77s67 -72 155 -72c51 0 92 27 92 80c0 101 -256 106 -256 252c0 84 73 154 176 154c70 0 123 -23 152 -40l-27 -70c-2 4 -60 42 -128 42c-41 0 -84 -21 -84 -65c0 -111 254 -97 254 -262c0 -96 -71 -159 -181 -159c-107 0 -162 60 -162 60z
" />
    <glyph glyph-name="afii10104" unicode="&#x457;" horiz-adv-x="264" 
d="M178 531v-469l8 -62h-94v457l-12 74h98zM95 631c0 -31 -23 -55 -50 -55s-50 24 -50 55c0 30 23 55 50 55s50 -25 50 -55zM279 631c0 -31 -23 -55 -50 -55s-50 24 -50 55c0 30 23 55 50 55s50 -25 50 -55z" />
    <glyph glyph-name="afii10017" unicode="&#x410;" horiz-adv-x="571" 
d="M-2 0l254 658l61 13l204 -561l50 -110h-109l-63 172h-245l-65 -172h-87zM265 477l-88 -229h193l-83 230l-10 39z" />
    <glyph glyph-name="afii10018" unicode="&#x411;" horiz-adv-x="554" 
d="M202 328v-256h73c107 0 139 62 139 128c0 96 -53 128 -155 128h-57zM202 584v-184h61c182 0 246 -97 246 -200s-64 -200 -246 -200h-151v566l-13 92h357v-74h-254z" />
    <glyph glyph-name="afii10019" unicode="&#x412;" horiz-adv-x="559" 
d="M202 588v-195h72c38 0 71 -7 73 -7c17 23 38 57 38 101c0 70 -43 103 -140 103c-13 0 -28 -1 -43 -2zM99 658l158 5c125 4 214 -52 214 -156c0 -55 -49 -111 -75 -137c65 -30 113 -71 113 -166c0 -107 -64 -204 -246 -204h-151v566zM202 319v-247h73
c107 0 139 62 139 123c0 91 -53 124 -155 124h-57z" />
    <glyph glyph-name="afii10020" unicode="&#x413;" horiz-adv-x="450" 
d="M112 566l-13 92h342v-76h-239v-507l10 -75h-100v566z" />
    <glyph glyph-name="afii10021" unicode="&#x414;" horiz-adv-x="661" 
d="M10 -160l2 240h63c65 120 76 250 76 420l1 66l-13 92h405v-578h75l2 -240h-91l-1 160h-427l-1 -160h-91zM241 500c0 -170 -11 -300 -66 -420h279v498h-213v-78z" />
    <glyph glyph-name="afii10022" unicode="&#x415;" 
d="M112 0v566l-13 92h342v-74h-239v-210h209l-20 -74h-189v-226h250l-20 -74h-320z" />
    <glyph glyph-name="afii10024" unicode="&#x416;" horiz-adv-x="820" 
d="M365 377v189l-13 92h103v-281h59l86 176c46 94 100 117 146 117c17 0 32 -3 40 -6l9 -83c-8 2 -21 3 -33 3c-24 0 -54 -18 -81 -72l-86 -172l210 -340h-111l-179 297h-60v-222l10 -75h-100v297h-60l-179 -297h-111l210 340l-86 172c-27 54 -57 72 -81 72
c-12 0 -25 -1 -33 -3l9 83c8 3 23 6 40 6c46 0 100 -23 146 -117l86 -176h59z" />
    <glyph glyph-name="afii10025" unicode="&#x417;" horiz-adv-x="510" 
d="M153 385h76c29 0 55 -3 78 -9c27 29 44 64 44 118c0 62 -44 102 -116 102c-50 0 -97 -21 -144 -70l-46 68c59 54 122 76 191 76c111 0 201 -52 201 -176c0 -52 -35 -102 -75 -138c69 -37 98 -103 98 -170c0 -101 -65 -199 -221 -199c-116 0 -199 78 -199 78l22 74
s75 -75 177 -75c93 0 126 75 126 122c0 91 -53 124 -140 124h-72v75z" />
    <glyph glyph-name="afii10026" unicode="&#x418;" horiz-adv-x="753" 
d="M554 523l-27 -51l-328 -472h-87v566l-13 92h103v-523l27 51l328 472h87v-583l10 -75h-100v523z" />
    <glyph glyph-name="afii10027" unicode="&#x419;" horiz-adv-x="753" 
d="M378 746c64 0 102 97 102 97l55 -20s-39 -143 -157 -143s-157 143 -157 143l55 20s38 -97 102 -97zM554 523l-27 -51l-328 -472h-87v566l-13 92h103v-523l27 51l328 472h87v-583l10 -75h-100v523z" />
    <glyph glyph-name="afii10028" unicode="&#x41a;" horiz-adv-x="587" 
d="M202 377h71l94 176c49 92 100 117 146 117c17 0 32 -3 40 -6l9 -83c-8 2 -21 3 -33 3c-24 0 -51 -19 -81 -72l-96 -172l220 -340h-114l-185 297h-71v-222l10 -75h-100v566l-13 92h103v-281z" />
    <glyph glyph-name="afii10029" unicode="&#x41b;" horiz-adv-x="668" 
d="M249 578l-5 -118c-11 -270 -22 -473 -171 -473c-16 0 -35 3 -49 7l-9 83c12 -4 26 -6 40 -6c76 0 87 120 100 389l5 106l-13 92h412v-583l10 -75h-100v578h-220z" />
    <glyph glyph-name="afii10030" unicode="&#x41c;" horiz-adv-x="894" 
d="M459 74l-232 319l-33 66v-384l10 -75h-92v566l-13 92h66l298 -425l270 425h56v-583l10 -75h-100v463l-35 -70z" />
    <glyph glyph-name="afii10031" unicode="&#x41d;" horiz-adv-x="753" 
d="M644 658v-583l10 -75h-100v300h-352v-225l10 -75h-100v566l-13 92h103v-278h352v186l-13 92h103z" />
    <glyph glyph-name="afii10032" unicode="&#x41e;" horiz-adv-x="680" 
d="M346 670c193 0 289 -143 289 -335c0 -194 -131 -348 -302 -348c-183 0 -287 151 -287 336c0 193 129 347 300 347zM144 329c0 -149 79 -270 197 -270s196 121 196 270s-78 270 -196 270s-197 -121 -197 -270z" />
    <glyph glyph-name="afii10033" unicode="&#x41f;" horiz-adv-x="753" 
d="M644 658v-583l10 -75h-100v578h-352v-503l10 -75h-100v566l-13 92h545z" />
    <glyph glyph-name="afii10034" unicode="&#x420;" horiz-adv-x="546" 
d="M99 658h186c110 0 216 -63 216 -198c0 -114 -106 -214 -250 -214h-49v-171l10 -75h-100v566zM202 320h65c74 0 139 54 139 140c0 82 -65 124 -139 124h-65v-264z" />
    <glyph glyph-name="afii10035" unicode="&#x421;" horiz-adv-x="617" 
d="M573 588l-46 -68c-47 49 -102 76 -168 76c-129 0 -218 -132 -218 -271c0 -161 113 -261 225 -261c91 0 194 84 194 84l22 -74s-96 -87 -232 -87c-155 0 -305 114 -305 328c0 205 142 355 318 355c83 0 151 -28 210 -82z" />
    <glyph glyph-name="afii10036" unicode="&#x422;" horiz-adv-x="526" 
d="M5 582v76h516v-76h-216v-507l10 -75h-100v582h-210z" />
    <glyph glyph-name="afii10037" unicode="&#x423;" horiz-adv-x="615" 
d="M605 658l-222 -512c-45 -103 -103 -159 -198 -159c-17 0 -34 4 -52 11l-14 85c17 -6 34 -10 51 -10c55 0 92 21 116 68l-203 407l-73 110h123l177 -355l24 -68l23 68l153 355h95z" />
    <glyph glyph-name="afii10038" unicode="&#x424;" horiz-adv-x="698" 
d="M30 321c0 154 121 253 274 255l-13 92h103v-92c153 -2 274 -101 274 -255s-121 -254 -274 -256l10 -75h-100v75c-153 2 -274 102 -274 256zM128 321c0 -111 68 -187 176 -187v373c-108 0 -176 -75 -176 -186zM570 321c0 111 -68 186 -176 186v-373c108 0 176 76 176 187z
" />
    <glyph glyph-name="afii10039" unicode="&#x425;" horiz-adv-x="497" 
d="M9 0l195 334l-141 253l-52 71h117l117 -209l15 -31l13 31l119 209h94l-187 -316l192 -342h-107l-124 225l-15 33l-16 -35l-125 -223h-95z" />
    <glyph glyph-name="afii10040" unicode="&#x426;" horiz-adv-x="728" 
d="M109 0v583l-10 75h100v-578h322v503l-10 75h100v-578h75l2 -240h-91l-1 160h-487z" />
    <glyph glyph-name="afii10041" unicode="&#x427;" horiz-adv-x="654" 
d="M264 232c-111 0 -191 64 -191 210v124l-13 92h103v-216c0 -93 47 -132 134 -132c84 0 158 37 158 37v219l-13 92h103v-583l10 -75h-100v268s-84 -36 -191 -36z" />
    <glyph glyph-name="afii10042" unicode="&#x428;" horiz-adv-x="980" 
d="M450 80v503l-10 75h100v-578h251v503l-10 75h100v-658h-772v583l-10 75h100v-578h251z" />
    <glyph glyph-name="afii10043" unicode="&#x429;" horiz-adv-x="998" 
d="M450 80v503l-10 75h100v-578h251v503l-10 75h100v-578h75l2 -240h-91l-1 160h-757v583l-10 75h100v-578h251z" />
    <glyph glyph-name="afii10044" unicode="&#x42a;" horiz-adv-x="589" 
d="M242 328v-256h73c107 0 139 62 139 128c0 96 -53 128 -155 128h-57zM0 658h242v-258h61c182 0 246 -97 246 -200s-64 -200 -246 -200h-151v582h-152v76z" />
    <glyph glyph-name="afii10045" unicode="&#x42b;" horiz-adv-x="809" 
d="M202 328v-256h73c107 0 139 62 139 128c0 96 -53 128 -155 128h-57zM202 658v-258h61c182 0 246 -97 246 -200s-64 -200 -246 -200h-151v566l-13 92h103zM700 658v-583l10 -75h-100v566l-13 92h103z" />
    <glyph glyph-name="afii10046" unicode="&#x42c;" horiz-adv-x="549" 
d="M202 328v-256h73c107 0 139 62 139 128c0 96 -53 128 -155 128h-57zM202 658v-258h61c182 0 246 -97 246 -200s-64 -200 -246 -200h-151v566l-13 92h103z" />
    <glyph glyph-name="afii10047" unicode="&#x42d;" horiz-adv-x="617" 
d="M198 300v80h275c-15 126 -85 216 -215 216c-66 0 -121 -27 -168 -76l-46 68c59 54 127 82 210 82c196 0 318 -135 318 -355c0 -224 -135 -328 -305 -328c-136 0 -232 87 -232 87l22 74s103 -84 194 -84c120 0 215 81 224 236h-277z" />
    <glyph glyph-name="afii10048" unicode="&#x42e;" horiz-adv-x="892" 
d="M573 670c178 0 274 -143 274 -335c0 -194 -131 -348 -287 -348c-161 0 -264 138 -272 313h-86v-225l10 -75h-100v566l-13 92h103v-278h90c22 165 140 290 281 290zM386 329c0 -149 79 -270 182 -270s181 121 181 270s-78 270 -181 270s-182 -121 -182 -270z" />
    <glyph glyph-name="afii10049" unicode="&#x42f;" horiz-adv-x="603" 
d="M401 330v256h-73c-107 0 -139 -62 -139 -128c0 -96 53 -128 155 -128h57zM94 458c0 103 64 200 246 200h151v-566l13 -92h-103v258h-86l-161 -258h-114l179 277c-90 33 -125 105 -125 181z" />
    <glyph glyph-name="afii10065" unicode="&#x430;" horiz-adv-x="516" 
d="M-2 0l232 531l51 11l183 -448l48 -94h-100l-57 138h-218l-59 -138h-80zM239 379l-75 -173h165l-70 173l-9 30z" />
    <glyph glyph-name="afii10066" unicode="&#x431;" horiz-adv-x="517" 
d="M196 268v-202h66c96 0 125 45 125 101c0 81 -48 101 -139 101h-52zM196 464v-130h55c168 0 226 -79 226 -167s-58 -167 -226 -167h-140v456l-12 75h330v-67h-233z" />
    <glyph glyph-name="afii10067" unicode="&#x432;" horiz-adv-x="523" 
d="M197 467v-147h63c27 0 65 -5 65 -5c15 17 32 44 32 77c0 53 -37 77 -124 77c-11 0 -23 -1 -36 -2zM99 531c149 4 158 4 158 4c107 0 182 -45 182 -127c0 -43 -38 -85 -63 -108c57 -24 97 -56 97 -132c0 -87 -59 -168 -223 -168h-138v453zM197 253v-187h63
c95 0 124 48 124 95c0 70 -47 92 -138 92h-49z" />
    <glyph glyph-name="afii10068" unicode="&#x433;" horiz-adv-x="422" 
d="M111 456l-12 75h314v-65h-217v-405l9 -61h-94v456z" />
    <glyph glyph-name="afii10069" unicode="&#x434;" horiz-adv-x="611" 
d="M12 -130v199h57c59 97 66 198 69 336l1 51l-12 75h374v-462h68v-199h-82v130h-393v-130h-82zM223 405c0 -138 -10 -239 -60 -336h253v392h-193v-56z" />
    <glyph glyph-name="afii10070" unicode="&#x435;" horiz-adv-x="472" 
d="M112 0v453l-13 78h313v-67h-215v-158h190l-21 -67h-169v-172h227l-21 -67h-291z" />
    <glyph glyph-name="afii10072" unicode="&#x436;" horiz-adv-x="752" 
d="M333 306v150l-12 75h97v-225h54l78 140c42 76 91 95 133 95c15 0 29 -3 36 -5l8 -67c-7 1 -19 2 -30 2c-21 0 -49 -15 -73 -58l-79 -139l192 -274h-101l-163 238h-55v-177l9 -61h-94v238h-54l-163 -238h-101l191 274l-79 139c-24 43 -51 58 -73 58c-11 0 -23 -1 -30 -2
l8 67c7 2 21 5 36 5c42 0 91 -19 133 -95l78 -140h54z" />
    <glyph glyph-name="afii10073" unicode="&#x437;" horiz-adv-x="473" 
d="M143 314h69c27 0 50 -3 71 -7c25 23 39 49 39 91c0 52 -39 79 -104 79c-46 0 -88 -17 -131 -57l-42 61c54 44 111 62 174 62c107 0 188 -42 188 -143c0 -42 -32 -82 -74 -112c63 -30 90 -83 90 -137c0 -82 -60 -162 -202 -162c-105 0 -181 64 -181 64l20 63
s69 -61 161 -61c85 0 112 58 112 96c0 73 -45 98 -124 98h-66v65z" />
    <glyph glyph-name="afii10074" unicode="&#x438;" horiz-adv-x="703" 
d="M510 419l-24 -42l-296 -377h-79v456l-12 75h97v-419l24 42l296 377h79v-470l9 -61h-94v419z" />
    <glyph glyph-name="afii10075" unicode="&#x439;" horiz-adv-x="703" 
d="M353 604c58 0 93 79 93 79l50 -16s-36 -116 -143 -116s-143 116 -143 116l50 16s35 -79 93 -79zM510 419l-24 -42l-296 -377h-79v456l-12 75h97v-419l24 42l296 377h79v-470l9 -61h-94v419z" />
    <glyph glyph-name="afii10076" unicode="&#x43a;" horiz-adv-x="548" 
d="M196 307h66l84 139c45 74 91 95 133 95c15 0 29 -3 36 -5l8 -67c-7 1 -19 2 -30 2c-21 0 -45 -15 -73 -58l-89 -138l202 -275h-104l-167 237h-66v-176l9 -61h-94v456l-12 75h97v-224z" />
    <glyph glyph-name="afii10077" unicode="&#x43b;" horiz-adv-x="618" 
d="M230 461l-5 -88c-10 -219 -20 -384 -158 -384c-14 0 -31 3 -44 6l-8 67c11 -3 23 -4 36 -4c69 0 77 97 89 315l5 83l-12 75h377v-470l9 -61h-94v461h-195z" />
    <glyph glyph-name="afii10078" unicode="&#x43c;" horiz-adv-x="828" 
d="M418 55l-209 254l-28 51v-295l10 -65h-86v454l-12 77h58l271 -344l241 344h54v-466l10 -65h-95v361l-28 -48z" />
    <glyph glyph-name="afii10079" unicode="&#x43d;" horiz-adv-x="706" 
d="M595 531v-466l10 -65h-95v238h-313v-173l10 -65h-95v453l-13 78h98v-221h313v143l-13 78h98z" />
    <glyph glyph-name="afii10080" unicode="&#x43e;" horiz-adv-x="625" 
d="M318 541c175 0 262 -116 262 -272c0 -157 -118 -282 -273 -282c-166 0 -261 122 -261 272c0 157 117 282 272 282zM139 264c0 -117 70 -212 175 -212s174 95 174 212s-69 212 -174 212s-175 -95 -175 -212z" />
    <glyph glyph-name="afii10081" unicode="&#x43f;" horiz-adv-x="706" 
d="M595 531v-466l10 -65h-95v459h-313v-394l10 -65h-95v453l-13 78h496z" />
    <glyph glyph-name="afii10082" unicode="&#x440;" horiz-adv-x="511" 
d="M99 531h170c100 0 197 -51 197 -162c0 -93 -97 -175 -227 -175h-42v-129l10 -65h-95v453zM197 261h56c66 0 123 41 123 108c0 63 -57 95 -123 95h-56v-203z" />
    <glyph glyph-name="afii10083" unicode="&#x441;" horiz-adv-x="569" 
d="M527 472l-46 -59c-42 39 -92 61 -151 61c-115 0 -194 -104 -194 -213c0 -127 101 -203 200 -203c83 0 176 65 176 65l22 -65s-90 -71 -212 -71c-141 0 -277 92 -277 266c0 166 129 288 289 288c74 0 137 -23 193 -69z" />
    <glyph glyph-name="afii10084" unicode="&#x442;" horiz-adv-x="479" 
d="M5 463v68h469v-68h-195v-398l10 -65h-95v463h-189z" />
    <glyph glyph-name="afii10085" unicode="&#x443;" horiz-adv-x="564" 
d="M554 531l-201 -416c-40 -83 -96 -128 -182 -128c-15 0 -31 3 -47 9l-13 69c15 -5 31 -9 46 -9c48 0 82 17 104 55l-185 331l-66 89h114l160 -289l22 -55l21 55l139 289h88z" />
    <glyph glyph-name="afii10086" unicode="&#x444;" horiz-adv-x="642" 
d="M30 258c0 125 109 205 249 206l-11 75h95v-75c140 -1 249 -81 249 -206c0 -124 -109 -205 -249 -206l9 -61h-93v61c-140 1 -249 82 -249 206zM120 258c0 -89 61 -151 159 -151v302c-98 0 -159 -61 -159 -151zM522 258c0 90 -60 151 -159 151v-302c99 0 159 62 159 151z
" />
    <glyph glyph-name="afii10087" unicode="&#x445;" horiz-adv-x="461" 
d="M9 0l179 270l-126 199v-1l-53 63h114l106 -167l12 -21l10 21l108 167h91l-171 -254l176 -277h-103l-113 181l-12 22l-12 -24l-113 -179h-93z" />
    <glyph glyph-name="afii10088" unicode="&#x446;" horiz-adv-x="678" 
d="M108 0v470l-9 61h94v-463h293v402l-9 61h91v-463h68l2 -198h-83l-1 130h-446z" />
    <glyph glyph-name="afii10089" unicode="&#x447;" horiz-adv-x="603" 
d="M245 185c-101 0 -174 52 -174 170v101l-11 75h96v-171c0 -75 43 -107 121 -107s142 30 142 30v173l-12 75h97v-470l9 -61h-94v214s-76 -29 -174 -29z" />
    <glyph glyph-name="afii10090" unicode="&#x448;" horiz-adv-x="919" 
d="M421 68v402l-9 61h94v-463h229v402l-9 61h94v-531h-712v470l-9 61h94v-463h228z" />
    <glyph glyph-name="afii10091" unicode="&#x449;" horiz-adv-x="930" 
d="M421 68v402l-9 61h94v-463h229v402l-9 61h94v-463h68l2 -198h-83l-1 130h-698v470l-9 61h94v-463h228z" />
    <glyph glyph-name="afii10092" unicode="&#x44a;" horiz-adv-x="546" 
d="M223 531v-199h55c170 0 228 -78 228 -166s-58 -166 -228 -166h-140v465h-138v66h223zM223 267v-202h66c98 0 127 48 127 101c0 78 -48 101 -141 101h-52z" />
    <glyph glyph-name="afii10093" unicode="&#x44b;" horiz-adv-x="762" 
d="M654 531v-470l9 -61h-94v456l-12 75h97zM196 267v-202h66c98 0 127 48 127 101c0 78 -48 101 -141 101h-52zM196 531v-199h55c170 0 228 -78 228 -166s-58 -166 -228 -166h-140v456l-12 75h97z" />
    <glyph glyph-name="afii10094" unicode="&#x44c;" horiz-adv-x="519" 
d="M196 267v-202h66c98 0 127 48 127 101c0 78 -48 101 -141 101h-52zM196 531v-199h55c170 0 228 -78 228 -166s-58 -166 -228 -166h-140v456l-12 75h97z" />
    <glyph glyph-name="afii10095" unicode="&#x44d;" horiz-adv-x="570" 
d="M183 240v69h250c-12 101 -77 166 -195 166c-60 0 -110 -22 -153 -62l-42 61c54 44 116 67 191 67c178 0 291 -108 291 -286c0 -181 -124 -266 -279 -266c-124 0 -211 71 -211 71l20 66s94 -68 176 -68c110 0 197 59 204 182h-252z" />
    <glyph glyph-name="afii10096" unicode="&#x44e;" horiz-adv-x="828" 
d="M533 540c162 0 250 -113 250 -269c0 -157 -119 -282 -261 -282c-147 0 -241 112 -248 254h-78v-182l9 -61h-94v456l-12 75h97v-223h82c20 133 127 232 255 232zM364 265c0 -110 71 -208 165 -208s164 98 164 208c0 111 -70 208 -164 208s-165 -97 -165 -208z" />
    <glyph glyph-name="afii10097" unicode="&#x44f;" horiz-adv-x="565" 
d="M369 272v196h-67c-92 0 -126 -44 -126 -97c0 -78 53 -99 141 -99h52zM86 371c0 83 58 160 227 160h141v-456l12 -75h-97v209h-78l-149 -209h-102l163 224c-82 27 -117 85 -117 147z" />
    </font>
</defs>
</svg>
